Заходят многие - остаются лучшие!
Здравствуйте Гость ( Вход | Регистрация ) Выслать повторно письмо для активации
Вход
Ваше имя Пароль Забыли пароль?
Запомнить Вас?
Войти скрытым?



Новые сообщения раздела  

 

 Я купил папу (1962), Старое советское кино
bornik
  №1 Отправлено: 20.01.2016 - 08:40


Воспоминания - это богатства старости.

Группа: Модераторы
Регистрация: 18.08.2008
Сообщений: 1036
Обитает:
Последний раз был:
21.05.2019 - 18:04




Я купил папу



«Я купил папу» - советский чёрно-белый художественный фильм режиссёра Ильи Фрэза, поставленный в 1962 году.

Предыдущая раздача 11.03.2006 г.

Жанр: Комедия, детский
Выпущено: СССР, Киностудия им. М. Горького
Год выпуска: 1962
Премьера (СССР): 28 апреля 1963 года

Режиссёр: Илья Фрэз

В ролях:
Алёша Загорский … Димка Одинцов
Ольга Лысенко … Тоня Одинцова, мама Димки
Владимир Трещалов … Андрей, "папа" Димки
Светлана Агеева … Вера Павловна, воспитательница
Марина Гаврилко … продавщица мороженого
Анатолий Касапов … прохожий с газировкой
Зинаида Нарышкина … кассирша в универмаге
Геннадий Фролов … дядя Коля, папа Толика Веселова
Вера Орлова … продавщица детей и пап из сна Димки
Владимир Семёнов … Дима, новый друг Димки
Леня Никитин … Толик Веселов
Л. Кардонский … эпизод
Виктор Клюкин … эпизод
К. Славинский … эпизод
А. Стрельникова … эпизод
В. Таубе … эпизод
А. Чижова … эпизод
Георгий Милляр … продавец в зоомагазине (нет в титрах)
Семён Морозов … телефонист, учащийся ремесленного училища (нет в титрах)
Пётр Репнин … гражданин с газетой, покупатель возле кассы (нет в титрах)
Марина Фигнер … эпизод (нет в титрах)

Сценарист: Вольф Долгий
Оператор: Михаил Кириллов
Композитор: Нектариос Чаргейшвили
Художник: Сергей Серебреников



Описание: Димке пять лет - и у него нет отца. Однажды мальчик решил, что деньги, отложенные на покупку папы, мама просто потратила на мороженое. Исправить положение он решил сам - и отправился в универмаг, в витрине которого видел очень красивого "дядю"...





• В своё время фильм продали для проката в Штаты. Совершенно неожиданно для всех, он имел там успех, куда больший, чем в СССР, где его раскритиковали и пустили в прокат "третьим экраном" (одна из разгромных рецензий на фильм называлась "Ещё один мальчик").
• В американском прокате фильм назывался "Димка".
• Дом из фильма, куда приводит Димка своего "папу" Андрея, находится по адресу: Москва, ул. Гончарная, д.16, стр.1-2 (у метро "Таганская-кольцевая"). Дерева перед воротами дома, как в фильме, уже нет.







Исходником послужил релиз DVB от Cheef mate (запись потока *.ts со спутника EUTELSAT, микширование в *.mpg программой VideoReDo), взятый с Рутрекера, за что ему БОЛЬШОЕ СПАСИБО!



Архивы созданы RAR-архиватором с добавлением 3% на восстановление и снабжены sfv-проверочником.
Просьба к первому скачавшему отписаться о сохранности архивов на источнике раздачи.

Раздача рассчитана на месяц.

ПРИЯТНОГО ВСЕМ ПРОСМОТРА !!!



General
Complete name : C:\Cinema\Я купил папу (1962) TVRip.avi
Format : AVI
Format/Info : Audio Video Interleave
File size : 1.29 GiB
Duration : 1h 16mn
Overall bit rate : 2 404 Kbps
Writing application : VirtualDubMod 1.5.10.2 (build 2542/release)
Writing library : VirtualDubMod build 2542/release

Video
ID : 0
Format : MPEG-4 Visual
Format profile : Advanced Simple@L5
Format settings, BVOP : 2
Format settings, QPel : No
Format settings, GMC : No warppoints
Format settings, Matrix : Default (H.263)
Muxing mode : Packed bitstream
Codec ID : XVID
Codec ID/Hint : XviD
Duration : 1h 16mn
Bit rate : 2 203 Kbps
Width : 720 pixels
Height : 352 pixels
Display aspect ratio : 2.045
Frame rate : 25.000 fps
Color space : YUV
Chroma subsampling : 4:2:0
Bit depth : 8 bits
Scan type : Progressive
Compression mode : Lossy
Bits/(Pixel*Frame) : 0.348
Stream size : 1.18 GiB (92%)
Writing library : XviD 65

Audio
ID : 1
Format : MPEG Audio
Format version : Version 1
Format profile : Layer 3
Mode : Joint stereo
Mode extension : MS Stereo
Codec ID : 55
Codec ID/Hint : MP3
Duration : 1h 16mn
Bit rate mode : Constant
Bit rate : 192 Kbps
Channel(s) : 2 channels
Sampling rate : 48.0 KHz
Compression mode : Lossy
Stream size : 105 MiB (8%)
Alignment : Aligned on interleaves
Interleave, duration : 40 ms (1.00 video frame)
Interleave, preload duration : 504 ms
Writing library : LAME3.98r
Encoding settings : -m j -V 4 -q 3 -lowpass 18.6 -b 192
Фильм залит в архив.




Это сообщение отредактировал bornik - 20.01.2016 - 13:10


--------------------
Безоблачная старость – это миф,
Поскольку наша память – ширь морская,
И к ночи начинается прилив,
Со дна обломки прошлого таская.
Игорь Губерман

Скрыть подпись


Nadejdaenergia
№2 Отправлено: 20.01.2016 - 11:10


Когда всё плохое уходит, остаётся только хорошее.

Группа: Модераторы
Регистрация: 21.03.2012
Сообщений: 6519
Обитает:
Последний раз был:
7.06.2019 - 14:19




Архивы в порядке, вопросов нет.


--------------------


1. Только надеяться - мало толка.
И все-таки, разумеется,
надо надеяться, но только
НЕ ТОЛЬКО надеяться.

2. Мудрость простейших истин признав,
Повесь на стену себе
Знак сокровенный, таинственный Знак
ВТВ.
И если к вершине долгий путь
Стал непосильным бременем –
Вспомни, прежде чем повернуть:
Всё Требует Времени…


Piet Hein Jr.

Скрыть подпись
Top
bornik
№3 Отправлено: 20.01.2016 - 11:14


Воспоминания - это богатства старости.

Группа: Модераторы
Регистрация: 18.08.2008
Сообщений: 1036
Обитает:
Последний раз был:
21.05.2019 - 18:04




Цитата
( Nadejdaenergia @ 20.01.2016 - 11:10)
Архивы в порядке, вопросов нет.

Nadejdaenergia - и Вам спасибо за добрую весть. pozdrav_buket.gif


--------------------
Безоблачная старость – это миф,
Поскольку наша память – ширь морская,
И к ночи начинается прилив,
Со дна обломки прошлого таская.
Игорь Губерман

Скрыть подпись
Top
bornik
№4 Отправлено: 24.02.2016 - 06:05


Воспоминания - это богатства старости.

Группа: Модераторы
Регистрация: 18.08.2008
Сообщений: 1036
Обитает:
Последний раз был:
21.05.2019 - 18:04




Всем спасибо.
Очередь закрыта. Если есть желающие - пишите в ПМ.


--------------------
Безоблачная старость – это миф,
Поскольку наша память – ширь морская,
И к ночи начинается прилив,
Со дна обломки прошлого таская.
Игорь Губерман

Скрыть подпись
Top
1 человек просматривает эту тему (1 гость)
« Предыдущая тема | Детский киносеанс | Следующая тема »


 



[Script Execution time: 0,1115]   [24 queries used]   [GZIP enabled]