Заходят многие - остаются лучшие!
Здравствуйте Гость ( Вход | Регистрация ) Выслать повторно письмо для активации
Вход
Ваше имя Пароль Забыли пароль?
Запомнить Вас?
Войти скрытым?



 Правила раздела Новые сообщения раздела  


 

 Там, где шпионы / Where the Spies Are (1965), Комедия,шпионский;Реж.-В.Гест;Роли-Д.Нивен,Ф.Дорлиак,С.Кьюсак
SanSan48
  №1 Отправлено: 21.05.2017 - 15:33


"Спартак" - ЧЕМПИОН!!!

Группа: Пользователи
Регистрация: 28.12.2009
Сообщений: 1823
Обитает:
Последний раз был:
вчера в 19:14




Там, где шпионы / Where the Spies Are (1965)



Предыдущая раздача:
11.12.2012 (TVrip)

Жанр: Комедия, шпионский, приключения
Выпущено: : Великобритания, Metro-Goldwyn-Mayer (MGM)
Год выпуска: 1965
Премьера (мир): Май 1965 (Великобритания), 26 января 1966 (США, Нью-Йорк)
Сценаристы: Вэл Гест / Val Guest, Вульф Манковиц / Wolf Mankowitz
Оператор: Артур Грант / Arthur Grant
Композитор: Марио Нашимбене / Mario Nascimbene
Художники: Джон Хауэлл / John Howell, Беатрис Доусон / Beatrice Dawson
Монтажер: Билл Ленни / Bill Lenny

Режиссёр: Вэл Гест / Val Guest

В ролях:
Дэвид Нивен / David Niven ... Доктор Джейсон Лав / Dr. Jason Love
Франсуаза Дорлеак / Françoise Dorléac ... Викки / Vikki
Джон Ле Мезурье / John Le Mesurier ... МакГиливрэй / MacGillivray
Сирил Кьюсак / Cyril Cusack ... Россер / Rosser
Эрик Польманн / Eric Pohlmann ... Фарук / Farouk
Ричард Марнер / Richard Marner ... Иосиф / Josef
Пол Стассино / Paul Stassino ... Симмиас / Simmias
Джордж Правда / George Pravda ... Первый агент / 1st Agent
Ноэль Харрисон / Noel Harrison ... Джексон / Jackson
Рональд Рэдд / Ronald Radd ... Станиславский / Stanilaus
Алан Гиффорд / Alan Gifford ... Охранник / Security
Джордж Микелл / George Mikell ... Ассассен / Assassin
Найджел Девенпорт / Nigel Davenport ... Паркингтон / Parkington
Габор Баракер / Gábor Baraker ... Второй агент / 2nd Agent
Джеффри Бэйлдон / Geoffrey Bayldon ... Преподаватель / Lecturer

Описание: По роману Джеймса Лизора (James Leasor).
Британская разведка нанимает непрофессионала, чтобы тот выполнил простое задание в одной из стран Ближнего востока. Счастливчику удаётся не погибнуть сразу…

Дополнительная информация: Релиз:

Автор рипа: pmv
Исходник найден в сети.

Большое спасибо за:
- Перевод и озвучивание - С.Рябов
- Аудиодорожку с русской озвучкой - Bruno Widt
- Синхронизацию звука - pmv

* В данной раздаче представлен фильм в широкоэкранном варианте, в отличие от предыдущей раздачи с AR = 4:3, где почти половина содержимого экрана обрезана.
Для наглядности ниже приведено сравнение 2-х кадров с предыдущей раздачи на Фениксе:

TVrip (576x448) < > DVDrip (854x356)






* Оригинальная аудиодорожка: английский (приложена отдельным файлом)

IMDb = 5,6/10 (508) - http://www.imdb.com/title/tt0059905
Кинопоиск = - (25) - https://www.kinopoisk.ru/film/27772/

ВНИМАНИЕ!!! РИП ФОРМАТА mkv (кодек H.264) ВОСПРОИЗВОДИТСЯ НЕ НА ВСЕХ БЫТОВЫХ ВИДЕОПЛЕЕРАХ!!!

Параметры файла:
Название: Where The Spies Are (1966, rus_VO).mkv
Качество видео: DVDRip
Формат видео: MKV
Размер: 1,45 ГБ (1 563 040 872 bytes)
Продолжительность: 01:53:00
Перевод: Авторский (одноголосый закадровый) - С.Рябов
Оригинальная аудиодорожка: английский (приложена отдельным файлом)
Видео: AVC (H264), 716@854x356, 23.976 fps, 1651 Kbps, 0.270 bit/pixel
Аудио: AC3, 48 KHz, stereo (2 ch), 192 kbps



General
Unique ID : 253454141214279463551841334607376873637 (0xBEAD7DF4533143A2BFCEC55EBC8CF8A5)
Complete name : D:\torrents\Where The Spies Are (1966, rus_VO).mkv
Format : Matroska
Format version : Version 4 / Version 2
File size : 1.46 GiB
Duration : 1h 52mn
Overall bit rate : 1 844 Kbps
Encoded date : UTC 2017-05-18 06:38:19
Writing application : mkvmerge v11.0.0 ('Alive') 64bit
Writing library : libebml v1.3.4 + libmatroska v1.4.5
DURATION : 01:52:58.464000000
NUMBER_OF_FRAMES : 211827
NUMBER_OF_BYTES : 162683136
_STATISTICS_WRITING_APP : mkvmerge v11.0.0 ('Alive') 64bit
_STATISTICS_WRITING_DATE_UTC : 2017-05-18 06:38:19
_STATISTICS_TAGS : BPS DURATION NUMBER_OF_FRAMES NUMBER_OF_BYTES

Video
ID : 1
Format : AVC
Format/Info : Advanced Video Codec
Format profile : High@L4.1
Format settings, CABAC : Yes
Format settings, ReFrames : 8 frames
Codec ID : V_MPEG4/ISO/AVC
Duration : 1h 52mn
Bit rate : 1 651 Kbps
Width : 716 pixels
Height : 356 pixels
Display aspect ratio : 2.40:1
Original display aspect ratio : 2.40:1
Frame rate mode : Constant
Frame rate : 23.976 fps
Color space : YUV
Chroma subsampling : 4:2:0
Bit depth : 8 bits
Scan type : Progressive
Bits/(Pixel*Frame) : 0.270
Stream size : 1.28 GiB (88%)
Writing library : x264 core 148 r2638 7599210
Encoding settings : cabac=1 / ref=8 / deblock=1:-3:-3 / analyse=0x3:0x133 / me=umh / subme=9 / psy=1 / psy_rd=1.00:0.15 / mixed_ref=1 / me_range=28 / chroma_me=1 / trellis=2 / 8x8dct=1 / cqm=0 / deadzone=21,11 / fast_pskip=0 / chroma_qp_offset=-3 / threads=6 / lookahead_threads=1 / sliced_threads=0 / nr=0 / decimate=0 / interlaced=0 / bluray_compat=0 / constrained_intra=0 / bframes=10 / b_pyramid=2 / b_adapt=2 / b_bias=0 / direct=3 / weightb=1 / open_gop=0 / weightp=2 / keyint=240 / keyint_min=23 / scenecut=40 / intra_refresh=0 / rc_lookahead=60 / rc=2pass / mbtree=1 / bitrate=1651 / ratetol=3.0 / qcomp=0.60 / qpmin=0 / qpmax=69 / qpstep=4 / cplxblur=20.0 / qblur=0.5 / vbv_maxrate=14000 / vbv_bufsize=14000 / nal_hrd=none / filler=0 / ip_ratio=1.40 / aq=1:1.00
Language : English
Default : Yes
Forced : No

Audio
ID : 2
Format : AC-3
Format/Info : Audio Coding 3
Mode extension : CM (complete main)
Format settings, Endianness : Big
Codec ID : A_AC3
Duration : 1h 52mn
Bit rate mode : Constant
Bit rate : 192 Kbps
Channel(s) : 2 channels
Channel positions : Front: L R
Sampling rate : 48.0 KHz
Bit depth : 16 bits
Compression mode : Lossy
Stream size : 155 MiB (10%)
Language : Russian
Default : Yes
Forced : No








МОИ РАЗДАЧИ НА ФЕНИКСе: ЗДЕСЬ




Это сообщение отредактировал SanSan48 - 22.05.2017 - 07:27


--------------------
"Спартак" - ЧЕМПИОН!!!

Скрыть подпись
vjub58
№2 Отправлено: 21.05.2017 - 16:48


Практикующий эсквайр

Группа: Аксакалы
Регистрация: 6.12.2005
Сообщений: 4605
Обитает:
Последний раз был:
cегодня в 00:51




Спасибо, все ОК. pozdrav_buket.gif
Top
pushistiy
№3 Отправлено: 21.05.2017 - 17:04


Старожил

Группа: Потребители
Регистрация: 8.12.2013
Сообщений: 605
Последний раз был:
вчера в 13:18




Цитата
SanSan48 @ 21.05.2017 - 15:33
Премьера (СССР): 7 ноября 1937

Да Вы что ?! wow.gif За 28 лет до выпуска фильма ? pain25.gif Поправьтесь, быстренько. wink2.gif
Top
grival406
№4 Отправлено: 21.05.2017 - 17:51


Старожил

Группа: Потребители
Регистрация: 3.03.2016
Сообщений: 931
Обитает:
На форуме с:
cегодня в 09:20




Большое спасибо!


--------------------
Я знаю только одного тирана, и это тихий голос совести.
Махатма Ганди

Скрыть подпись
Top
SanSan48
№5 Отправлено: 22.05.2017 - 07:03


"Спартак" - ЧЕМПИОН!!!

Группа: Пользователи
Регистрация: 28.12.2009
Сообщений: 1823
Обитает:
Последний раз был:
вчера в 19:14




Цитата
( vjub58 @ 21.05.2017 - 16:48)
Спасибо, все ОК. pozdrav_buket.gif

vjub58
grival406

Благодарю за сообщение!

Приятного Всем просмотра!


--------------------
"Спартак" - ЧЕМПИОН!!!

Скрыть подпись
Top
SanSan48
№6 Отправлено: 22.05.2017 - 07:14


"Спартак" - ЧЕМПИОН!!!

Группа: Пользователи
Регистрация: 28.12.2009
Сообщений: 1823
Обитает:
Последний раз был:
вчера в 19:14




Цитата
pushistiy @ 21.05.2017 - 17:04
Цитата
SanSan48 @ 21.05.2017 - 15:33
Премьера (СССР): 7 ноября 1937

Да Вы что ?! wow.gif За 28 лет до выпуска фильма ? pain25.gif Поправьтесь, быстренько. wink2.gif

Пушистый, да глазастый! yaya.gif

Спасибо за обнаруженную ошибку! goldcup.gif

Ужо быстро исправил... ura1.gif ura1.gif ura1.gif


Это сообщение отредактировал SanSan48 - 22.05.2017 - 07:19


--------------------
"Спартак" - ЧЕМПИОН!!!

Скрыть подпись
Top
1 человек просматривает эту тему (1 гость)
« Предыдущая тема | Зарубежные фильмы | Следующая тема »


 



[Script Execution time: 0,0368]   [24 queries used]   [GZIP enabled]