Заходят многие - остаются лучшие!
Здравствуйте Гость ( Вход | Регистрация ) Выслать повторно письмо для активации
Вход
Ваше имя Пароль Забыли пароль?
Запомнить Вас?
Войти скрытым?



Новые сообщения раздела  

 

 Как открыть видео .3gp в AviSynth?, или Как конвертировать .3gp в лослесс?
GreifeR
№1 Отправлено: 13.01.2019 - 12:10


Живёт здесь

Группа: Аксакалы
Регистрация: 22.03.2009
Сообщений: 5100
Обитает:
Последний раз был:
вчера в 21:32




Как открыть видео .3gp в AviSynth?
Или как конвертировать .3gp в лослесс?


Дорогие форумчане!
Имеются файлы с расширением .3gp из старого сотового телефона:

Формат : MPEG-4
Профиль формата : 3GPP Media Release 5
Идентификатор кодека : 3gp5
Размер файла : 2,16 Мбайт
Продолжительность : 8 с. 384 мс.
Общий поток : 2157 Кбит/сек
Дата кодирования : UTC 2019-01-07 16:02:37
Дата пометки : UTC 2019-01-07 16:02:37

Видео
Идентификатор : 1
Формат : MPEG-4 Visual
Профиль формата : Simple@L4a
Параметр BVOP формата : Да
Параметр QPel формата : Нет
Параметр GMC формата : Без точки перехода
Параметр матрицы формата : Default (H.263)
Идентификатор кодека : 20
Продолжительность : 8 с. 384 мс.
Вид битрейта : Постоянный
Битрейт : 2048 Кбит/сек
Ширина : 640 пикселей
Высота : 480 пикселей
Соотношение сторон : 4:3
Режим частоты кадров : Переменный
Частота кадров : 14,909 кадров/сек
Минимальная частота кадров : 5,435 кадров/сек
Максимальная частота кадров : 22,727 кадра/сек
Цветовое пространство : YUV
Битовая глубина : 8 бит
Тип развёртки : Прогрессивная
Метод сжатия : С потерями
Бит/(Пиксели*Кадры) : 0.447
Размер потока : 2,01 Мбайт (93%)
Язык : English
Дата кодирования : UTC 2019-01-07 16:02:37
Дата пометки : UTC 2019-01-07 16:02:37

Аудио
Идентификатор : 2
Формат : AAC
Формат/Информация : Advanced Audio Codec
Профиль формата : LC
Идентификатор кодека : 40
Продолжительность : 8 с. 384 мс.
Вид битрейта : Постоянный
Битрейт : 96,0 Кбит/сек
Каналы : 1 канал
Расположение каналов : Front: C
Частота : 48,0 КГц
Метод сжатия : С потерями
Размер потока : 98,4 Кбайт (4%)
Язык : English
Дата кодирования : UTC 2019-01-07 16:02:37
Дата пометки : UTC 2019-01-07 16:02:37

Требуется сделать их пригодными для обработки и монтажа. В идеале - открыть в AviSynth.
Или хотя бы сконвертировать в лосслесс видео и аудио или в несжатое avi.
Все перепробованные автоматические "однокопочные" конвертеры для этого типа файлов сохраняют только в другие типы файлов, соответственно, с потерей качества.

Помогите советом!


Это сообщение отредактировал GreifeR - 13.01.2019 - 12:10
Top
sharky
№2 Отправлено: 13.01.2019 - 13:56


Человек дождя

Группа: Аксакалы
Регистрация: 7.09.2007
Сообщений: 11050
Обитает:
Последний раз был:
вчера в 20:29




Почему именно в AviSynth?

Этой программой сможете отредактировать и перекодировать в mpeg2, DIVX и другие форматы.
TMPGEnc 4.0 XPress

Если нужна программа, поделюсь.


Это сообщение отредактировал sharky - 13.01.2019 - 15:22


--------------------

Лень - двигатель прогресса!

Скрыть подпись
Top
GreifeR
№3 Отправлено: 13.01.2019 - 15:31


Живёт здесь

Группа: Аксакалы
Регистрация: 22.03.2009
Сообщений: 5100
Обитает:
Последний раз был:
вчера в 21:32




Цитата
sharky @ 13.01.2019 - 16:56
Если нужна программа, поделюсь.

sharky, спасибо, буду очень признателен!

В AviSynth потому, что потом можно много во что перекодировать, и AVS-файл открывается в некоторых видеоредакторах напрямую. Требуется сделать файл со стандартными параметрами, чтобы потом загнать в монтажку.


Это сообщение отредактировал GreifeR - 13.01.2019 - 15:32
Top
sharky
№4 Отправлено: 13.01.2019 - 16:38


Человек дождя

Группа: Аксакалы
Регистрация: 7.09.2007
Сообщений: 11050
Обитает:
Последний раз был:
вчера в 20:29




Цитата
( GreifeR @ 13.01.2019 - 15:31)
Цитата
sharky @ 13.01.2019 - 16:56
Если нужна программа, поделюсь.

sharky, спасибо, буду очень признателен!

В AviSynth потому, что потом можно много во что перекодировать, и AVS-файл открывается в некоторых видеоредакторах напрямую. Требуется сделать файл со стандартными параметрами, чтобы потом загнать в монтажку.

В ПМ.


--------------------

Лень - двигатель прогресса!

Скрыть подпись
Top
1 человек просматривает эту тему (1 гость)
« Предыдущая тема | Советы специалистов | Следующая тема »


 



[Script Execution time: 0,0112]   [19 queries used]   [GZIP enabled]