Заходят многие - остаются лучшие!
Здравствуйте Гость ( Вход | Регистрация ) Выслать повторно письмо для активации
Вход
Ваше имя Пароль Забыли пароль?
Запомнить Вас?
Войти скрытым?



 Правила раздела Новые сообщения раздела  


 

 Слегка опасная / Slightly Dangerous (1943), Лана Тернер, Роберт Янг, Уолтер Бреннан / комедия
surzhoks
  №1 Отправлено: 8.09.2019 - 08:52


Живёт здесь

Группа: Аксакалы
Регистрация: 17.03.2008
Сообщений: 1175
Обитает:
Последний раз был:
9.11.2019 - 12:21




Слегка опасная / Slightly Dangerous


Страна: США
Студия: Metro-Goldwyn-Mayer (MGM)
Жанр: комедия, мелодрама
Год выпуска: 1943
Продолжительность: 01:34:06
Режиссер: Уэсли Рагглз / Wesley Ruggles
В ролях:
Лана Тернер / Lana Turner ... Peggy Evans
Роберт Янг / Robert Young ... Bob Stuart
Уолтер Бреннан / Walter Brennan ... Cornelius Burden
Мэй Уитти / May Whitty ... Baba
Юджин Пэллет / Eugene Pallette ... Durstin
Алан Маубрэй / Alan Mowbray ... English Gentleman
Флоренс Бейтс / Florence Bates ... Mrs. Amanda Roanoke-Brooke
Ховард Фриман / Howard Freeman ... Mr. Quill
Миллард Митчелл / Millard Mitchell ... Baldwin
Уорд Бонд / Ward Bond ... Jimmy
Памела Блейк / Pamela Blake ... Mitzi
Рэй Коллинз / Ray Collins ... Snodgrass

Описание: Работница магазина Пегги Эванс, сытая по горло однообразием своей работы в маленьком городке, забирает сбережения своей жизни, инсценирует самоубийство и бежит в Нью-Йорк в поисках новой жизни. Там она пытается выдать себя за давно пропавшую дочь миллионера Корнелиуса Бурдена...


Доп. информация:
Огромное спасибо всем причастным к релизу:
рип - Магда,
перевод и озвучивание фильма- Юрий Медведев,
работа со звуком и реавторинг DVD - AlekceyR76,
финансовая поддержка перевода и озвучивания фильма:
Магда, Lafajet, jasenka, yanaelisa, борюська, sindzi, voostorg, Ugo927, cementit, Simpun, surzhoks, leoder, sapog1960, spartakeynoir, Лямдазонд, mumzik69

Архивы созданы RAR-архиватором с добавлением 3% на восстановление и снабжены sfv-проверочником.
Просьба к первому скачавшему отписаться о сохранности архивов на источнике раздачи.

Раздача рассчитана на 2 месяца. На просмотр линка и скачивание 5 дней!
В случае если вы встали в очередь, а затем отказываетесь от скачивания без объяснения причин, возможен отказ в последующих моих раздачах.



Полное имя :Slightly Dangerous.avi
Формат : AVI
Формат/Информация : Audio Video Interleave
Размер файла : 1,46 Гбайт
Продолжительность : 1 ч. 34 м.
Общий поток : 2220 Кбит/сек
Программа кодирования : VirtualDubMod 1.5.10.3 | www.virtualdub-fr.org || (build 2550/release)
Библиотека кодирования : VirtualDubMod build 2550/release

Видео
Идентификатор : 0
Формат : MPEG-4 Visual
Профиль формата : Advanced Simple@L5
Параметр BVOP формата : 2
Параметр QPel формата : Нет
Параметр GMC формата : Без точки перехода
Параметр матрицы формата : Default (H.263)
Идентификатор кодека : XVID
Идентификатор кодека/Подсказка : XviD
Продолжительность : 1 ч. 34 м.
Битрейт : 1822 Кбит/сек
Ширина : 640 пикселей
Высота : 480 пикселей
Соотношение сторон : 4:3
Частота кадров : 23,976 кадра/сек
Цветовое пространство : YUV
Субдискретизация насыщенности : 4:2:0
Битовая глубина : 8 бит
Тип развёртки : Прогрессивная
Метод сжатия : С потерями
Бит/(Пиксели*Кадры) : 0.247
Размер потока : 1,20 Гбайт (82%)
Библиотека кодирования : XviD 73

Аудио #1
Идентификатор : 1
Формат : AC-3
Формат/Информация : Audio Coding 3
Расширение режима : CM (complete main)
Параметр Endianness формата : Big
Идентификатор кодека : 2000
Продолжительность : 1 ч. 34 м.
Вид битрейта : Постоянный
Битрейт : 192 Кбит/сек
Каналы : 2 канала
Расположение каналов : Front: L R
Частота : 48,0 КГц
Битовая глубина : 16 бит
Метод сжатия : С потерями
Размер потока : 129 Мбайт (9%)
Выравнивание : Разделение по промежуткам
Продолжительность промежутка : 42 мс. (1,00 видеокадр)
Время предзагрузки промежутка : 500 мс.

Аудио #2
Идентификатор : 2
Формат : AC-3
Формат/Информация : Audio Coding 3
Расширение режима : CM (complete main)
Параметр Endianness формата : Big
Идентификатор кодека : 2000
Продолжительность : 1 ч. 34 м.
Вид битрейта : Постоянный
Битрейт : 192 Кбит/сек
Каналы : 2 канала
Расположение каналов : Front: L R
Частота : 48,0 КГц
Битовая глубина : 16 бит
Метод сжатия : С потерями
Размер потока : 129 Мбайт (9%)
Выравнивание : Разделение по промежуткам
Продолжительность промежутка : 42 мс. (1,00 видеокадр)
Время предзагрузки промежутка : 500 мс.




OldLady
№2 Отправлено: 8.09.2019 - 10:54


секрет

Группа: Аксакалы
Регистрация: 26.03.2006
Сообщений: 3963
Последний раз был:
cегодня в 14:21




Архив в порядке, спасибо за раздачу!
Top
1 человек просматривает эту тему (1 гость)
« Предыдущая тема | Зарубежные фильмы | Следующая тема »


 



[Script Execution time: 0,0595]   [23 queries used]   [GZIP enabled]