Заходят многие - остаются лучшие!
Здравствуйте Гость ( Вход | Регистрация ) Выслать повторно письмо для активации
Вход
Ваше имя Пароль Забыли пароль?
Запомнить Вас?
Войти скрытым?



Новые сообщения раздела  

 

 Новодевичий монастырь (2013), RTG Production Studios
bornik
  №1 Отправлено: 19.06.2018 - 15:20


Воспоминания - это богатства старости.

Группа: Модераторы
Регистрация: 18.08.2008
Сообщений: 1036
Обитает:
Последний раз был:
вчера в 07:16




Новодевичий монастырь (2013)



«Новодевичий монастырь» - православный женский монастырь Русской Церкви в Москве. Он был основан великим князем Василием III в 1524 году - в честь Смоленской иконы Божией Матери "Одигитрия" - главной святыни Смоленска, в благодарность за овладение Смоленском в 1514 году. Но некоторые историки считают, что он построен специально для того, чтобы сюда можно было заточить жену Василия III, княгиню Соломонию, которая к тому времени вот уже как 20 лет не могла родить князю наследника. После насильственного пострижения Соломонии в монахини под именем Софьи, Василий III успешно женился на Елене Глинской, которая смогла родить ему наследника - Иоанна, впоследствии названного Грозным... Насильственное пострижение в монахини после этого случая стало популярной мерой в отношении неугодных/надоевших правителю княгинь и цариц, и Новодевичий стал как раз тем самым местом, куда они впоследствии довольно регулярно попадали.
В 2004 году Новодевичьему монастырю исполнилось 480 лет и его архитектурный ансамбль был включен ЮНЕСКО в список всемирного наследия человечества. Само собой также является памятником архитектуры федерального значения. Монастырь считается одним из старейших и красивейших монастырских архитектурных ансамблей России.

Оригинальное название: Новодевичий монастырь
Год выпуска: 2013
Жанр: Документальный, познавательный
Выпущено: Россия, , RTG Production Studios
Продолжительность: 00:49:22
Субтитры: Русские (мои)

Режиссёр: Юрий Давыдов / Yuri Davydov
Сценаристы: Вадим Сокуренко / Vadim Sokurenko,
Алексей Деревщиков / Alexey Derevshikov,
Пётр Горбачёв / Pyotr Gorbachyov


Ведущая: Ирина Пудова / Irina Pudova

Описание: Новодевичий женский монастырь - важнейшая достопримечательность на всех туристических картах Москвы. Сложно представить, что еще несколько веков назад, когда монастырь только строился, это была даже не окраина столицы – это был её пригород. И всё же именно Новодевичьему монастырю суждено было не раз сыграть важную роль в истории Российского государства. С XVI века он становился свидетелем и участником событий, потрясавших страну до самых дальних границ. Долгое время это был самый привилегированный и богатый монастырь в стране. В былые времена в него поступали знатные женщины: царские и боярские жёны, дочери, вдовы, сёстры. Сегодня Новодевичий монастырь – один из красивейших религиозных архитектурных комплексов столицы, музей с уникальным собранием старинных икон и предметов монастырского быта. При этом здесь не прекращается монастырская жизнь.
Зрителям предлагается совершить небольшую видеоэкскурсию и узнать для себя немало нового и интересного!









General
Complete name : C:\DVD documental fimls\RTG\Новодевичий монастырь\Новодевичий монастырь (2013).avi
Format : AVI
Format/Info : Audio Video Interleave
File size : 779 MiB
Duration : 49mn 22s
Overall bit rate : 2 205 Kbps
Writing application : VirtualDubMod 1.5.10.2 (build 2540/release)
Writing library : VirtualDubMod build 2540/release

Video
ID : 0
Format : MPEG-4 Visual
Format profile : Advanced Simple@L5
Format settings, BVOP : 2
Format settings, QPel : No
Format settings, GMC : No warppoints
Format settings, Matrix : Default (H.263)
Muxing mode : Packed bitstream
Codec ID : XVID
Codec ID/Hint : XviD
Duration : 49mn 22s
Bit rate : 2 003 Kbps
Width : 720 pixels
Height : 400 pixels
Display aspect ratio : 16:9
Frame rate : 25.000 fps
Color space : YUV
Chroma subsampling : 4:2:0
Bit depth : 8 bits
Scan type : Progressive
Compression mode : Lossy
Bits/(Pixel*Frame) : 0.278
Stream size : 708 MiB (91%)
Writing library : XviD 65

Audio
ID : 1
Format : MPEG Audio
Format version : Version 1
Format profile : Layer 3
Codec ID : 55
Codec ID/Hint : MP3
Duration : 49mn 22s
Bit rate mode : Constant
Bit rate : 192 Kbps
Channel(s) : 2 channels
Sampling rate : 48.0 KHz
Compression mode : Lossy
Stream size : 67.8 MiB (9%)
Alignment : Aligned on interleaves
Interleave, duration : 40 ms (1.00 video frame)
Interleave, preload duration : 504 ms
Writing library : LAME3.98r
Encoding settings : -m s -V 4 -q 3 -lowpass 18.6 -b 192


=================================

Исходником послужил релиз HDTV, найденный на просторах инета!

Архивы созданы RAR-архиватором с добавлением 3% на восстановление и снабжены sfv-проверочником.
Просьба к первому скачавшему отписаться о сохранности архивов на источнике раздачи.


ПРИЯТНОГО ВСЕМ ПРОСМОТРА !!!




--------------------
Безоблачная старость – это миф,
Поскольку наша память – ширь морская,
И к ночи начинается прилив,
Со дна обломки прошлого таская.
Игорь Губерман

Скрыть подпись


nota
№2 Отправлено: 19.06.2018 - 17:23


Посетитель

Группа: Потребители
Регистрация: 31.10.2007
Сообщений: 144
Обитает:
Последний раз был:
cегодня в 17:03




Спасибо ! Архивы в порядке !
Top
bornik
№3 Отправлено: 19.06.2018 - 17:31


Воспоминания - это богатства старости.

Группа: Модераторы
Регистрация: 18.08.2008
Сообщений: 1036
Обитает:
Последний раз был:
вчера в 07:16




Цитата
( nota @ 19.06.2018 - 17:23)
Спасибо ! Архивы в порядке !

И Вам, nota, спасибо за добрую весть. happy_fly.gif


--------------------
Безоблачная старость – это миф,
Поскольку наша память – ширь морская,
И к ночи начинается прилив,
Со дна обломки прошлого таская.
Игорь Губерман

Скрыть подпись
Top
1 человек просматривает эту тему (1 гость)
« Предыдущая тема | Мир вокруг нас | Следующая тема »


 



[Script Execution time: 0,0248]   [22 queries used]   [GZIP enabled]