Заходят многие - остаются лучшие!
Здравствуйте Гость ( Вход | Регистрация ) Выслать повторно письмо для активации
Вход
Ваше имя Пароль Забыли пароль?
Запомнить Вас?
Войти скрытым?



 Правила раздела Новые сообщения раздела  


 

 Полночная любовь / Les amours de minuit (1931)
surzhoks
  №1 Отправлено: 17.10.2019 - 19:31


Живёт здесь

Группа: Аксакалы
Регистрация: 17.03.2008
Сообщений: 1175
Обитает:
Последний раз был:
9.11.2019 - 12:21




Полночная любовь / Les amours de minuit


Страна: Франция, Германия
Студия: Carl Froelich-Film GmbH (I), Les Établissements Braunberger-Richebé
Жанр: драма, мелодрама, криминал
Год выпуска: 1931
Продолжительность: 01:32:59
Режиссеры: Августо Дженина / Augusto Genina, Марк Аллегре / Marc Allégret
Композиторы: Паре / Parès, Ван-Пари / Van Pary, Деланне / Delanney, Бернар / Bernard
В ролях:
Даниель Парола / Danièle Parola ... Georgette Lajoie
Жак Варенн / Jacques Varennes ... Gaston Bouchard
Пьер Батчефф / Pierre Batcheff ... Marcel Valmont
Жослин Гаэль / Josseline Gaël ... Fanny
Луи Зелла / Louis Zellas (в титрах: Zellas) ... Le Capitaine
Пьер Лабри / Pierre Labry ... Le policier
Генри Лесьер / Henri Lesieur
Поль Вельса / Paul Velsa

Описание: Гастон Бушар, приговоренный к 20 годам колонии строгого режима, сбегает и встречает в поезде Марселя Вальмона. Он замечает билет в Южную Америку и большую сумму денег в сумке молодого человека. Гастон предлагает Марселю прогуляться по городу в ожидании отплытия корабля. Он знакомит Марселя со своей подружкой Жоржеттой, представив её как свою сестру. Гастон планирует с помощью Жоржетты украсть деньги Марселя. Но его план рушится, потому что двое молодых людей влюбляются друг в друга...

Доп. информация:
Огромное спасибо всем причастным к релизу:
рип - Магда,
перевод фильма- Михаил Евсеев,
озвучивание фильма (по русским субтитрам) - Eugene Greene,
исходная запись с TV - aloysius70 (KG),
финансовая поддержка перевода и озвучивания фильма:
Магда, Lafajet, jasenka, yanaelisa, Паzанка, voostorg, cementit, борюська, spartakeynoir, STICK24, bvedargh, killer snowman, Ugo927, mangust1, Nmaska, sindzi

Архивы созданы RAR-архиватором с добавлением 3% на восстановление и снабжены sfv-проверочником.
Просьба к первому скачавшему отписаться о сохранности архивов на источнике раздачи.

Раздача рассчитана на 2 месяца. На просмотр линка и скачивание 5 дней!
В случае если вы встали в очередь, а затем отказываетесь от скачивания без объяснения причин, возможен отказ в последующих моих раздачах.



Полное имя :Les amours de minuit.avi
Формат : AVI
Формат/Информация : Audio Video Interleave
Размер файла : 1,37 Гбайт
Продолжительность : 1 ч. 32 м.
Общий поток : 2111 Кбит/сек
Программа кодирования : VirtualDubMod 1.5.10.3 | www.virtualdub-fr.org || (build 2550/release)
Библиотека кодирования : VirtualDubMod build 2550/release

Видео
Идентификатор : 0
Формат : MPEG-4 Visual
Профиль формата : Advanced Simple@L5
Параметр BVOP формата : 2
Параметр QPel формата : Нет
Параметр GMC формата : Без точки перехода
Параметр матрицы формата : Default (H.263)
Идентификатор кодека : DX50
Идентификатор кодека/Подсказка : DivX 5
Продолжительность : 1 ч. 32 м.
Битрейт : 1713 Кбит/сек
Ширина : 528 пикселей
Высота : 400 пикселей
Соотношение сторон : 4:3
Частота кадров : 25,000 кадров/сек
Цветовое пространство : YUV
Субдискретизация насыщенности : 4:2:0
Битовая глубина : 8 бит
Тип развёртки : Прогрессивная
Метод сжатия : С потерями
Бит/(Пиксели*Кадры) : 0.324
Размер потока : 1,11 Гбайт (81%)
Библиотека кодирования : XviD 73

Аудио #1
Идентификатор : 1
Формат : AC-3
Формат/Информация : Audio Coding 3
Расширение режима : CM (complete main)
Параметр Endianness формата : Big
Идентификатор кодека : 2000
Продолжительность : 1 ч. 32 м.
Вид битрейта : Постоянный
Битрейт : 192 Кбит/сек
Каналы : 2 канала
Расположение каналов : Front: L R
Частота : 48,0 КГц
Битовая глубина : 16 бит
Метод сжатия : С потерями
Размер потока : 128 Мбайт (9%)
Выравнивание : Разделение по промежуткам
Продолжительность промежутка : 40 мс. (1,00 видеокадр)
Время предзагрузки промежутка : 500 мс.

Аудио #2
Идентификатор : 2
Формат : AC-3
Формат/Информация : Audio Coding 3
Расширение режима : CM (complete main)
Параметр Endianness формата : Big
Идентификатор кодека : 2000
Продолжительность : 1 ч. 32 м.
Вид битрейта : Постоянный
Битрейт : 192 Кбит/сек
Каналы : 2 канала
Расположение каналов : Front: L R
Частота : 48,0 КГц
Битовая глубина : 16 бит
Метод сжатия : С потерями
Размер потока : 128 Мбайт (9%)
Выравнивание : Разделение по промежуткам
Продолжительность промежутка : 40 мс. (1,00 видеокадр)
Время предзагрузки промежутка : 500 мс.




vjub58
№2 Отправлено: 17.10.2019 - 21:24


Практикующий эсквайр

Группа: Аксакалы
Регистрация: 6.12.2005
Сообщений: 5251
Обитает:
Последний раз был:
cегодня в 00:00




Спасибо, все ОК. pozdrav_buket.gif
Top
1 человек просматривает эту тему (1 гость)
« Предыдущая тема | Зарубежные фильмы | Следующая тема »


 



[Script Execution time: 0,0492]   [23 queries used]   [GZIP enabled]