Заходят многие - остаются лучшие!
Здравствуйте Гость ( Вход | Регистрация ) Выслать повторно письмо для активации
Вход
Ваше имя Пароль Забыли пароль?
Запомнить Вас?
Войти скрытым?



Новые сообщения раздела  

 

 Церковь Рождества Иоанна Предтечи (2012), RTG Production Studios
bornik
  №1 Отправлено: 7.06.2018 - 17:17


Воспоминания - это богатства старости.

Группа: Модераторы
Регистрация: 18.08.2008
Сообщений: 1020
Обитает:
Последний раз был:
cегодня в 02:04




Церковь Рождества Иоанна Предтечи (2012)



«Церковь Рождества Иоанна Предтечи» - на Каменном острове в Санкт-Петербурге стоит романо-готический храм, который на первый взгляд можно принять за католический костел или протестантскую кирху. Но это православная церковь.
Интересующиеся историей и преданиями старины глубокой знают, что когда-то именно в этом храме молились мальтийские рыцари, полководец Михаил Кутузов просил у Бога помощи на командование русской армией, а император Александр I получил здесь весть об исходе Бородинского сражения. Это история.

Оригинальное название: Церковь Рождества Иоанна Предтечи
Год выпуска: 2012
Жанр: Документальный, познавательный
Выпущено: Россия, , RTG Production Studios
Продолжительность: 00:22:00
Субтитры: Русские (мои)

Режиссёр: Игорь Соколов / Igor Sokolov
Сценарист: Андрей Соколов / Andrei Sokolov

Ведущая: Евгения Альтфельд / Eugenia Altfeld

Описание: Почти два с половиной столетия украшает Петербург этот изящный православный храм во имя Рождества Иоанна Предтечи. Церковь расположена на одном из островов в дельте реки Невы — Каменном, и очень напоминает готическую: стрельчатые арки окон, двери, колокольня, метнувшаяся вверх, открытая кирпичная кладка. Непривычный для Петербурга облик церкви во многом связан с личностью императора Павла I. Среди прихожан этого храма было много людей, которых можно назвать "вершителями судеб Отечества". Сюда приходили молиться русский поэт и драматург, государственный деятель Гавриил Романович Державин, и прославленный полководец, не знавший поражений, Александр Васильевич Суворов. Храм связан и с именем, пожалуй, самого почитаемого русского поэта — Александра Сергеевича Пушкина.
Зрителям предлагается совершить небольшую видеоэкскурсию и узнать для себя немало нового и интересного!









General
Complete name : C:\DVD documental fimls\RTG\Церковь Рождества Иоанна Предтечи\Церковь Рождества Иоанна Предтечи (2012).avi
Format : AVI
Format/Info : Audio Video Interleave
File size : 347 MiB
Duration : 22mn 0s
Overall bit rate : 2 203 Kbps
Writing application : VirtualDubMod 1.5.10.2 (build 2540/release)
Writing library : VirtualDubMod build 2540/release

Video
ID : 0
Format : MPEG-4 Visual
Format profile : Advanced Simple@L5
Format settings, BVOP : 2
Format settings, QPel : No
Format settings, GMC : No warppoints
Format settings, Matrix : Default (H.263)
Muxing mode : Packed bitstream
Codec ID : XVID
Codec ID/Hint : XviD
Duration : 22mn 0s
Bit rate : 2 002 Kbps
Width : 720 pixels
Height : 400 pixels
Display aspect ratio : 16:9
Frame rate : 25.000 fps
Color space : YUV
Chroma subsampling : 4:2:0
Bit depth : 8 bits
Scan type : Progressive
Compression mode : Lossy
Bits/(Pixel*Frame) : 0.278
Stream size : 315 MiB (91%)
Writing library : XviD 65

Audio
ID : 1
Format : MPEG Audio
Format version : Version 1
Format profile : Layer 3
Codec ID : 55
Codec ID/Hint : MP3
Duration : 22mn 0s
Bit rate mode : Constant
Bit rate : 192 Kbps
Channel(s) : 2 channels
Sampling rate : 48.0 KHz
Compression mode : Lossy
Stream size : 30.2 MiB (9%)
Alignment : Aligned on interleaves
Interleave, duration : 40 ms (1.00 video frame)
Interleave, preload duration : 504 ms
Writing library : LAME3.98r


=================================

Исходником послужил релиз HDTV, найденный на просторах инета!

Архивы созданы RAR-архиватором с добавлением 3% на восстановление и снабжены sfv-проверочником.
Просьба к первому скачавшему отписаться о сохранности архивов на источнике раздачи.


ПРИЯТНОГО ВСЕМ ПРОСМОТРА !!!




--------------------
Безоблачная старость – это миф,
Поскольку наша память – ширь морская,
И к ночи начинается прилив,
Со дна обломки прошлого таская.
Игорь Губерман

Скрыть подпись


kyo
№2 Отправлено: 7.06.2018 - 19:22


Живёт здесь

Группа: Потребители
Регистрация: 21.07.2007
Сообщений: 1977
Обитает:
Последний раз был:
вчера в 18:21




Архивы в порядке, спасибо !
Top
bornik
№3 Отправлено: 8.06.2018 - 02:32


Воспоминания - это богатства старости.

Группа: Модераторы
Регистрация: 18.08.2008
Сообщений: 1020
Обитает:
Последний раз был:
cегодня в 02:04




Цитата
( kyo @ 7.06.2018 - 19:22)
Архивы в порядке, спасибо !

И Вам, kyo, спасибо за добрую весть. happy_fly.gif


--------------------
Безоблачная старость – это миф,
Поскольку наша память – ширь морская,
И к ночи начинается прилив,
Со дна обломки прошлого таская.
Игорь Губерман

Скрыть подпись
Top
1 человек просматривает эту тему (1 гость)
« Предыдущая тема | Мир вокруг нас | Следующая тема »


 



[Script Execution time: 0,0306]   [22 queries used]   [GZIP enabled]