Заходят многие - остаются лучшие!
Здравствуйте Гость ( Вход | Регистрация ) Выслать повторно письмо для активации
Вход
Ваше имя Пароль Забыли пароль?
Запомнить Вас?
Войти скрытым?



Новые сообщения раздела  

 

 Удивительные большероты / National Geographic. Incredible Gulpers (2016), National Geographic
bornik
  №1 Отправлено: 31.03.2018 - 05:18


Воспоминания - это богатства старости.

Группа: Модераторы
Регистрация: 18.08.2008
Сообщений: 1023
Обитает:
Последний раз был:
cегодня в 09:07




Удивительные большероты / National Geographic. Incredible Gulpers (2016)



«Удивительные большероты» - в дикой природе можно встретить большеротых существ, они без проблем могут проглотить еду целиком и зачастую живьём.

Название: Удивительные большероты
Оригинальное название: Incredible Gulpers
Год выпуска: 2016
Жанр: Документальный, природа, фауна, флора
Выпущено: США, , Earth Touch and SN/SI Networks L.L.C
Продолжительность: 00:43:27
Субтитры: Русские (мои)

Режиссёр: Ванесса Лукас / Vanessa Lucas

Программа подготовлена и озвучена на студии "Велес"
Текст читает: Олег Белов

Описание: Они все разных форм и размеров. Но у них есть две общие черты: гигантская пасть и чудовищный аппетит. Это - животные большероты. У одних обжор есть зубы, а другим они ни к чему. Завидущие глаза и ненасытные утробы не знакомы с правилами столового этикета. Здесь никто не церемонится. Громадные челюсти кого угодно слопают в один присест. Ведь они принадлежат к самым удивительным большеротам в мире. Давайте узнаем кому принадлежит пальма первенства среди всех этих монстров.








General
Complete name : C:\DVD documental fimls\Удивительные большероты\Удивительные большероты (2016).avi
Format : AVI
Format/Info : Audio Video Interleave
File size : 685 MiB
Duration : 43mn 27s
Overall bit rate : 2 206 Kbps
Writing application : VirtualDubMod 1.5.10.2 (build 2540/release)
Writing library : VirtualDubMod build 2540/release

Video
ID : 0
Format : MPEG-4 Visual
Format profile : Advanced Simple@L5
Format settings, BVOP : 2
Format settings, QPel : No
Format settings, GMC : No warppoints
Format settings, Matrix : Default (H.263)
Muxing mode : Packed bitstream
Codec ID : XVID
Codec ID/Hint : XviD
Duration : 43mn 27s
Bit rate : 2 004 Kbps
Width : 720 pixels
Height : 400 pixels
Display aspect ratio : 16:9
Frame rate : 25.000 fps
Color space : YUV
Chroma subsampling : 4:2:0
Bit depth : 8 bits
Scan type : Progressive
Compression mode : Lossy
Bits/(Pixel*Frame) : 0.278
Stream size : 623 MiB (91%)
Writing library : XviD 65

Audio
ID : 1
Format : MPEG Audio
Format version : Version 1
Format profile : Layer 3
Mode : Joint stereo
Mode extension : MS Stereo
Codec ID : 55
Codec ID/Hint : MP3
Duration : 43mn 27s
Bit rate mode : Constant
Bit rate : 192 Kbps
Channel(s) : 2 channels
Sampling rate : 48.0 KHz
Compression mode : Lossy
Stream size : 59.7 MiB (9%)
Alignment : Aligned on interleaves
Interleave, duration : 40 ms (1.00 video frame)
Interleave, preload duration : 504 ms
Writing library : LAME3.98r
Encoding settings : -m j -V 4 -q 3 -lowpass 18.6 -b 192


Записались на автоматическое включение в очередь: Alevtina, Nadejdaenergia, baziss, grival406, медикус

Если вы хотите, чтобы вас автоматически ставили в очередь на следующие фильмы о природе,
- сообщите об этом в теме последней раздачи.


=================================

Исходником послужил релиз HDTV, найденный на просторах инета!

Архивы созданы RAR-архиватором с добавлением 3% на восстановление и снабжены sfv-проверочником.
Просьба к первому скачавшему отписаться о сохранности архивов на источнике раздачи.


ПРИЯТНОГО ВСЕМ ПРОСМОТРА !!!




--------------------
Безоблачная старость – это миф,
Поскольку наша память – ширь морская,
И к ночи начинается прилив,
Со дна обломки прошлого таская.
Игорь Губерман

Скрыть подпись


RussianGuy
№2 Отправлено: 31.03.2018 - 05:55


Завсегдатай

Группа: Потребители
Регистрация: 12.02.2007
Сообщений: 354
Обитает:
Последний раз был:
cегодня в 11:39




Архив в порядке. Спасибо
Top
bornik
№3 Отправлено: 1.04.2018 - 17:33


Воспоминания - это богатства старости.

Группа: Модераторы
Регистрация: 18.08.2008
Сообщений: 1023
Обитает:
Последний раз был:
cегодня в 09:07




Цитата
( RussianGuy @ 31.03.2018 - 05:55)
Архив в порядке. Спасибо

И Вам, RussianGuy, спасибо за добрую весть. happy_fly.gif


--------------------
Безоблачная старость – это миф,
Поскольку наша память – ширь морская,
И к ночи начинается прилив,
Со дна обломки прошлого таская.
Игорь Губерман

Скрыть подпись
Top
1 человек просматривает эту тему (1 гость)
« Предыдущая тема | Мир вокруг нас | Следующая тема »


 



[Script Execution time: 0,0339]   [22 queries used]   [GZIP enabled]