Заходят многие - остаются лучшие!
Здравствуйте Гость ( Вход | Регистрация ) Выслать повторно письмо для активации
Вход
Ваше имя Пароль Забыли пароль?
Запомнить Вас?
Войти скрытым?



 Правила раздела Новые сообщения раздела  


 

 Я всегда одинок / I Walk Alone (1947), В гл.ролях Берт Ланкастер, Кирк Дуглас, Лизабет Скотт / нуар, драма
surzhoks
  №1 Отправлено: 7.01.2019 - 09:28


Живёт здесь

Группа: Аксакалы
Регистрация: 17.03.2008
Сообщений: 1124
Обитает:
Последний раз был:
18.01.2019 - 17:27




Я всегда одинок / I Walk Alone


Страна: США
Студия: Hal Wallis Productions
Жанр: нуар, драма, криминал
Год выпуска: 1947
Продолжительность: 01:37:01
Режиссер: Байрон Хэскин / Byron Haskin
Композитор: Виктор Янг / Victor Young

В ролях:
Берт Ланкастер / Burt Lancaster ... Frankie Madison
Кирк Дуглас / Kirk Douglas ... Noll Turner
Лизабет Скотт / Lizabeth Scott ... Kay Lawrence
Уенделл Кори / Wendell Corey ... Dave
Кристин Миллер / Kristine Miller ... Mrs. Richardson
Жорж Риго / George Rigaud ... Maurice
Марк Лоуренс / Marc Lawrence ... Nick Palestro
Майк Мазурки / Mike Mazurki ... Dan
Микки Нокс / Mickey Knox ... Skinner

Описание: Бывший бутлегер Фрэнки Мэдисон после 14-летнего тюремного заключения выходит на свободу и возвращается в Нью-Йорк, чтобы согласно былой договорённости получить половину бизнеса своего старого товарища и делового партнёра Нолла Тёрнера. Однако Нолл, который за эти годы смог создать на легальных основаниях шикарный клуб, не желает делиться со старым партнёром своим бизнесом. Между Фрэнки и Ноллом возникает острый конфликт...
- Фильм поставлен по театральной пьесе Теодора Ривза «Попрошайки приходят в город», которая шла на Бродвее в 1945.
- «Я всегда одинок» — первый из семи совместных фильмов Ланкастера и Дугласа.
- Первоначально проект назывался «Тупик».
- В качестве режиссёра был выбрал Байрон Хэскина, который решил начать режиссёрскую карьеру после завершения восьмилетнего контракта с «Уорнер бразерс», где он работал в отделе специальных эффектов.


Доп. информация:
Огромное спасибо всем причастным к релизу:
рип - Магда,
перевод фильма- karlivanovich,
озвучивание фильма (по русским субтитрам) - Матвей Кенс,
работа со звуком - AlekceyR76,
финансовая поддержка перевода и озвучивания фильма:
Магда, Lafajet, jasenka, yanaelisa, STICK24, sindzi, елена 22, exact, Ugo927, борюська, surzhoks, voostorg, Patsy+, cementit, Wrobel

Архивы созданы RAR-архиватором с добавлением 3% на восстановление и снабжены sfv-проверочником.
Просьба к первому скачавшему отписаться о сохранности архивов на источнике раздачи.

Раздача рассчитана на 2 месяца. На просмотр линка и скачивание 5 дней!
В случае если вы встали в очередь, а затем отказываетесь от скачивания без объяснения причин, возможен отказ в последующих моих раздачах.



Полное имя :I Walk Alone.avi
Формат : AVI
Формат/Информация : Audio Video Interleave
Размер файла : 1,46 Гбайт
Продолжительность : 1 ч. 37 м.
Общий поток : 2154 Кбит/сек
Программа кодирования : VirtualDubMod 1.5.10.3 | www.virtualdub-fr.org || (build 2550/release)
Библиотека кодирования : VirtualDubMod build 2550/release

Видео
Идентификатор : 0
Формат : MPEG-4 Visual
Профиль формата : Advanced Simple@L5
Параметр BVOP формата : 2
Параметр QPel формата : Нет
Параметр GMC формата : Без точки перехода
Параметр матрицы формата : Default (H.263)
Идентификатор кодека : DX50
Идентификатор кодека/Подсказка : DivX 5
Продолжительность : 1 ч. 37 м.
Битрейт : 1756 Кбит/сек
Ширина : 720 пикселей
Высота : 528 пикселей
Соотношение сторон : 4:3
Частота кадров : 23,976 кадра/сек
Цветовое пространство : YUV
Субдискретизация насыщенности : 4:2:0
Битовая глубина : 8 бит
Тип развёртки : Прогрессивная
Метод сжатия : С потерями
Бит/(Пиксели*Кадры) : 0.193
Размер потока : 1,19 Гбайт (82%)
Библиотека кодирования : XviD 73

Аудио #1
Идентификатор : 1
Формат : AC-3
Формат/Информация : Audio Coding 3
Расширение режима : CM (complete main)
Параметр Endianness формата : Big
Идентификатор кодека : 2000
Продолжительность : 1 ч. 37 м.
Вид битрейта : Постоянный
Битрейт : 192 Кбит/сек
Каналы : 2 канала
Расположение каналов : Front: L R
Частота : 48,0 КГц
Битовая глубина : 16 бит
Метод сжатия : С потерями
Размер потока : 133 Мбайт (9%)
Выравнивание : Разделение по промежуткам
Продолжительность промежутка : 42 мс. (1,00 видеокадр)
Время предзагрузки промежутка : 500 мс.

Аудио #2
Идентификатор : 2
Формат : AC-3
Формат/Информация : Audio Coding 3
Расширение режима : CM (complete main)
Параметр Endianness формата : Big
Идентификатор кодека : 2000
Продолжительность : 1 ч. 37 м.
Вид битрейта : Постоянный
Битрейт : 192 Кбит/сек
Каналы : 2 канала
Расположение каналов : Front: L R
Частота : 48,0 КГц
Битовая глубина : 16 бит
Метод сжатия : С потерями
Размер потока : 133 Мбайт (9%)
Выравнивание : Разделение по промежуткам
Продолжительность промежутка : 42 мс. (1,00 видеокадр)
Время предзагрузки промежутка : 500 мс.




kyo
№2 Отправлено: 7.01.2019 - 10:18


Живёт здесь

Группа: Потребители
Регистрация: 21.07.2007
Сообщений: 2136
Обитает:
Последний раз был:
cегодня в 06:11




Архивы в порядке, спасибо !
Top
1 человек просматривает эту тему (1 гость)
« Предыдущая тема | Зарубежные фильмы | Следующая тема »


 



[Script Execution time: 0,2669]   [22 queries used]   [GZIP enabled]