Заходят многие - остаются лучшие!
Здравствуйте Гость ( Вход | Регистрация ) Выслать повторно письмо для активации
Вход
Ваше имя Пароль Забыли пароль?
Запомнить Вас?
Войти скрытым?



Новые сообщения раздела  

 

 Боевые награды Российской Федерации [2 фильма] (2011)
bornik
  №1 Отправлено: 18.05.2017 - 17:12


Воспоминания - это богатства старости.

Группа: Модераторы
Регистрация: 18.08.2008
Сообщений: 922
Обитает:
Последний раз был:
вчера в 19:46




Боевые награды Российской Федерации [2 фильма] (2011)



«Боевые награды Российской Федерации» - С начала 1992 года, после распада СССР, начала формироваться самостоятельная наградная система РФ.
Не один раз декларировался тезис о том, что она будет строиться на идее определённой преемственности наградной системы дореволюционной России с сохранением ряда элементов советской наградной системы.
Первым правовым актом о наградах в Российской Федерации является Указ Президиума Верховного Совета Российской Федерации от 2 марта 1992 года № 2424-1 «О государственных наградах Российской Федерации». Верховный Совет Российской Федерации 20 марта 1992 года своим постановлением № 2557-I утвердил данный указ.

Название: Боевые награды Российской Федерации
Год выпуска: 2011
Жанр: Документальный, исторический
Выпущено: Россия, ООО «Студия «КРЫЛЬЯ РОССИИ» по заказу ОАО «ТРК ВС РФ «ЗВЕЗДА»
Продолжительность: 01:15:13 (00:37:51 + 00:37:22)

Режиссёр: Константин Поляков

Продюсер: Сергей Викулин

Текст читает: Народный артист России Александр Клюквин

Описание: Фильм рассказывает о боевых наградах современной России и о сохранённых некоторых орденах и медалях бывшего СССР, об истории их создания и разработки и о процессе их изготовления.

В фильме использованы материалы из архивов:
пресс-службы ВВ МВД РФ,
пресс-службы ЦРК ВВ МВД РФ,
личного архива Алексея Новгородова,
личного архива Михаила Музалевского

Фильм первый









General
Complete name : C:\DVD documental fimls\Боевые награды\Боевые награды РФ. Фильм 1.avi
Format : AVI
Format/Info : Audio Video Interleave
File size : 597 MiB
Duration : 37mn 51s
Overall bit rate : 2 205 Kbps
Writing application : VirtualDubMod 1.5.10.2 (build 2540/release)
Writing library : VirtualDubMod build 2540/release

Video
ID : 0
Format : MPEG-4 Visual
Format profile : Advanced Simple@L5
Format settings, BVOP : 2
Format settings, QPel : No
Format settings, GMC : No warppoints
Format settings, Matrix : Default (H.263)
Muxing mode : Packed bitstream
Codec ID : XVID
Codec ID/Hint : XviD
Duration : 37mn 51s
Bit rate : 2 003 Kbps
Width : 720 pixels
Height : 544 pixels
Display aspect ratio : 4:3
Frame rate : 25.000 fps
Color space : YUV
Chroma subsampling : 4:2:0
Bit depth : 8 bits
Scan type : Progressive
Compression mode : Lossy
Bits/(Pixel*Frame) : 0.205
Stream size : 542 MiB (91%)
Writing library : XviD 65

Audio
ID : 1
Format : MPEG Audio
Format version : Version 1
Format profile : Layer 3
Mode : Joint stereo
Mode extension : MS Stereo
Codec ID : 55
Codec ID/Hint : MP3
Duration : 37mn 51s
Bit rate mode : Constant
Bit rate : 192 Kbps
Channel(s) : 2 channels
Sampling rate : 48.0 KHz
Compression mode : Lossy
Stream size : 52.0 MiB (9%)
Alignment : Aligned on interleaves
Interleave, duration : 40 ms (1.00 video frame)
Interleave, preload duration : 504 ms
Writing library : LAME3.98r
Encoding settings : -m j -V 4 -q 3 -lowpass 18.6 -b 192


=================================

Фильм второй









General
Complete name : C:\DVD documental fimls\Боевые награды\Боевые награды РФ. Фильм 2.avi
Format : AVI
Format/Info : Audio Video Interleave
File size : 589 MiB
Duration : 37mn 22s
Overall bit rate : 2 204 Kbps
Writing application : VirtualDubMod 1.5.10.2 (build 2540/release)
Writing library : VirtualDubMod build 2540/release

Video
ID : 0
Format : MPEG-4 Visual
Format profile : Advanced Simple@L5
Format settings, BVOP : 2
Format settings, QPel : No
Format settings, GMC : No warppoints
Format settings, Matrix : Default (H.263)
Muxing mode : Packed bitstream
Codec ID : XVID
Codec ID/Hint : XviD
Duration : 37mn 22s
Bit rate : 2 003 Kbps
Width : 720 pixels
Height : 544 pixels
Display aspect ratio : 4:3
Frame rate : 25.000 fps
Color space : YUV
Chroma subsampling : 4:2:0
Bit depth : 8 bits
Scan type : Progressive
Compression mode : Lossy
Bits/(Pixel*Frame) : 0.205
Stream size : 535 MiB (91%)
Writing library : XviD 65

Audio
ID : 1
Format : MPEG Audio
Format version : Version 1
Format profile : Layer 3
Mode : Joint stereo
Mode extension : MS Stereo
Codec ID : 55
Codec ID/Hint : MP3
Duration : 37mn 22s
Bit rate mode : Constant
Bit rate : 192 Kbps
Channel(s) : 2 channels
Sampling rate : 48.0 KHz
Compression mode : Lossy
Stream size : 51.3 MiB (9%)
Alignment : Aligned on interleaves
Interleave, duration : 40 ms (1.00 video frame)
Interleave, preload duration : 504 ms
Writing library : LAME3.98r
Encoding settings : -m j -V 4 -q 3 -lowpass 18.6 -b 192


=================================

Исходником послужил релиз DVB, найденный на просторах инета!

Архивы созданы RAR-архиватором с добавлением 3% на восстановление и снабжены sfv-проверочником.
Просьба к первому скачавшему отписаться о сохранности архивов на источнике раздачи.

Раздача рассчитана на месяц.

ПРИЯТНОГО ВСЕМ ПРОСМОТРА !!!




--------------------
Безоблачная старость – это миф,
Поскольку наша память – ширь морская,
И к ночи начинается прилив,
Со дна обломки прошлого таская.
Игорь Губерман

Скрыть подпись


fenixclub0313
№2 Отправлено: 18.05.2017 - 17:33


Завсегдатай

Группа: Аксакалы
Регистрация: 8.03.2013
Сообщений: 363
Последний раз был:
3.08.2017 - 03:54




bornik, архивы в порядке.
Top
bornik
№3 Отправлено: 18.05.2017 - 17:48


Воспоминания - это богатства старости.

Группа: Модераторы
Регистрация: 18.08.2008
Сообщений: 922
Обитает:
Последний раз был:
вчера в 19:46




Цитата
( fenixclub0313 @ 18.05.2017 - 17:33)
bornik, архивы в порядке.

Спасибо Вам, fenixclub0313, за добрую весть. happy_fly.gif


--------------------
Безоблачная старость – это миф,
Поскольку наша память – ширь морская,
И к ночи начинается прилив,
Со дна обломки прошлого таская.
Игорь Губерман

Скрыть подпись
Top
1 человек просматривает эту тему (1 гость)
« Предыдущая тема | Летопись времён и идей | Следующая тема »


 



[Script Execution time: 0,0301]   [22 queries used]   [GZIP enabled]