Заходят многие - остаются лучшие!
Здравствуйте Гость ( Вход | Регистрация ) Выслать повторно письмо для активации
Вход
Ваше имя Пароль Забыли пароль?
Запомнить Вас?
Войти скрытым?



 Правила раздела Новые сообщения раздела  


 

 За фасадом / Derrière la façade (1939), режиссер Жорж Лакомб / детектив / Франция
surzhoks
  №1 Отправлено: 13.10.2018 - 10:49


Живёт здесь

Группа: Аксакалы
Регистрация: 17.03.2008
Сообщений: 1095
Обитает:
Последний раз был:
cегодня в 17:42




За фасадом / Derrière la façade


Страна: Франция
Студия: Régina
Жанр: драма, детектив
Год выпуска: 1939
Продолжительность: 01:30:47
Режиссер: Жорж Лакомб / Georges Lacombe, Ив Миранд / Yves Mirande

В ролях:
Люсьен Бару / Lucien Baroux ... Le commissaire Boucheron
Жак Бомер / Jacques Baumer ... l'inspecteur Lambert
Жюль Берри / Jules Berry ... Alfrédo D'Avila
Андре Лефор / André Lefaur ... Corbeau
Габи Морлэй / Gaby Morlay ... Gaby
Эльвира Попеско / Elvire Popesco ... Madame Rameau
Мишель Симон / Michel Simon ... Picking
Бетти Стокфелд / Betty Stockfeld ... L'anglaise
Эрих фон Штрогейм / Erich von Stroheim ... Eric
Симона Беррьо / Simone Berriau ... Lydia
Раймон Сегар / Raymond Segard (в титрах: Segard) ... Robert Bernier
Марсель Орлук / Marcel Orluc (в титрах: Orluc) ... Gérard Bernier
Эме Кларьон / Aimé Clariond (в титрах: Aimé Clariond de la Comédie Française) ... Le président Bernier
Габи Сильвия / Gaby Sylvia ... Madeleine Martin
Ив Миранд / Yves Mirande ... Le clochard sur le banc, в титрах не указан

Описание: Хозяйка доходного дома, расположенного в центре Парижа, найдена убитой. Двое полицейских немедленно начинают расследование. Как слоны в посудную лавку, они грубо вторгаются в частную жизнь обитателей дома, неожиданно вытаскивая на свет божий все их драмы и комедии.

Доп. информация:
Огромное спасибо всем причастным к релизу:
рип - Магда,
перевод фильма на слух и подготовка субтитров- Lisok,
озвучивание фильма (по русским субтитрам)- Матвей Кенс,
работа со звуком и реавторинг DVD- Нордер,
финансовая поддержка перевода и озвучивания фильма:
Магда, Lafajet, jasenka, yanaelisa, STICK42, Nmaska, Simpun, sindzi, Wrobel, voostorg, GalaUkr, Clarets, HippopotamusIV

Архивы созданы RAR-архиватором с добавлением 3% на восстановление и снабжены sfv-проверочником.
Просьба к первому скачавшему отписаться о сохранности архивов на источнике раздачи.

Раздача рассчитана на 2 месяца. На просмотр линка и скачивание 5 дней!
В случае если вы встали в очередь, а затем отказываетесь от скачивания без объяснения причин, возможен отказ в последующих моих раздачах.



Полное имя :Derriere la facade.avi
Формат : AVI
Формат/Информация : Audio Video Interleave
Размер файла : 1,58 Гбайт
Продолжительность : 1 ч. 30 м.
Общий поток : 2491 Кбит/сек
Программа кодирования : VirtualDubMod 1.5.4.1 (build 2178/release)
Библиотека кодирования : VirtualDubMod build 2178/release

Видео
Идентификатор : 0
Формат : MPEG-4 Visual
Профиль формата : Advanced Simple@L5
Параметр BVOP формата : 2
Параметр QPel формата : Нет
Параметр GMC формата : Без точки перехода
Параметр матрицы формата : Default (H.263)
Идентификатор кодека : DX50
Идентификатор кодека/Подсказка : DivX 5
Продолжительность : 1 ч. 30 м.
Битрейт : 2093 Кбит/сек
Ширина : 704 пикселя
Высота : 528 пикселей
Соотношение сторон : 4:3
Частота кадров : 25,000 кадров/сек
Цветовое пространство : YUV
Субдискретизация насыщенности : 4:2:0
Битовая глубина : 8 бит
Тип развёртки : Прогрессивная
Метод сжатия : С потерями
Бит/(Пиксели*Кадры) : 0.225
Размер потока : 1,33 Гбайт (84%)
Библиотека кодирования : XviD 73

Аудио #1
Идентификатор : 1
Формат : AC-3
Формат/Информация : Audio Coding 3
Расширение режима : CM (complete main)
Параметр Endianness формата : Big
Идентификатор кодека : 2000
Продолжительность : 1 ч. 30 м.
Вид битрейта : Постоянный
Битрейт : 192 Кбит/сек
Каналы : 2 канала
Расположение каналов : Front: L R
Частота : 48,0 КГц
Битовая глубина : 16 бит
Метод сжатия : С потерями
Размер потока : 125 Мбайт (8%)
Выравнивание : Разделение по промежуткам
Продолжительность промежутка : 40 мс. (1,00 видеокадр)
Время предзагрузки промежутка : 500 мс.

Аудио #2
Идентификатор : 2
Формат : AC-3
Формат/Информация : Audio Coding 3
Расширение режима : CM (complete main)
Параметр Endianness формата : Big
Идентификатор кодека : 2000
Продолжительность : 1 ч. 30 м.
Вид битрейта : Постоянный
Битрейт : 192 Кбит/сек
Каналы : 2 канала
Расположение каналов : Front: L R
Частота : 48,0 КГц
Битовая глубина : 16 бит
Метод сжатия : С потерями
Размер потока : 125 Мбайт (8%)
Выравнивание : Разделение по промежуткам
Продолжительность промежутка : 40 мс. (1,00 видеокадр)
Время предзагрузки промежутка : 500 мс.




SALTAN
№2 Отправлено: 13.10.2018 - 13:05


Herr

Группа: Аксакалы
Регистрация: 19.01.2006
Сообщений: 10093
Последний раз был:
cегодня в 15:11




Архивы в порядке. Спасибо yaya.gif
Top
1 человек просматривает эту тему (1 гость)
« Предыдущая тема | Зарубежные фильмы | Следующая тема »


 



[Script Execution time: 0,0298]   [22 queries used]   [GZIP enabled]