Заходят многие - остаются лучшие!
Здравствуйте Гость ( Вход | Регистрация ) Выслать повторно письмо для активации
Вход
Ваше имя Пароль Забыли пароль?
Запомнить Вас?
Войти скрытым?



 Правила раздела Новые сообщения раздела  


 

 Удушливая жара / Изнуряющая жара / Caldo soffocante (1991), Драма;Реж.-Д.Гальярдо;Роли-К.Буассон,Э.Фантастикини
SanSan48
  №1 Отправлено: 22.03.2018 - 17:48


"Спартак" - ЧЕМПИОН!!!

Группа: Пользователи
Регистрация: 28.12.2009
Сообщений: 1948
Обитает:
Последний раз был:
cегодня в 18:38




Удушливая жара / Изнуряющая жара / Caldo soffocante (1991)



Жанр: Драма
Выпущено: Италия, BOA, Reteitalia, Silvio Berlusconi Communications [Reteitalia, Silvio Berlusconi Communications, BOA]
Год выпуска: 1991
Сценаристы: Джованна Гальярдо / Giovanna Gagliardo, Эннио Де Кончини / Ennio De Concini, Роберто Маццони / Roberto Mazzoni
Операторы: Джузеппе Ланчи / Giuseppe Lanci , Кристиано Погани / Cristiano Pogany
Художники: Лоренцо Баральди / Lorenzo Baraldi, Джанна Джисси / Gianna Gissi, Гуалтьеро Капрара / Gualtiero Caprara
Монтажёр: Роберто Перпиньяни / Roberto Perpignani

Режиссёр: Джованна Гальярдо / Giovanna Gagliardo

В ролях:
Кристин Буассон / Christine Boisson ... Мари Кристиан / Marie Christine
Эннио Фантастикини / Ennio Fantastichini ... Джулиано Феррини / Giuliano Ferrini
Фьоренца Маркеджани / Fiorenza Marchegiani ... Брунелла / Brunella
Маурицио Фардо / Maurizio Fardo ... Маурицио / Maurizio
Рафаэлла Оффидани / Raffaella Offidani ... Мириам / Miriam
Валерия Фабрици / Valeria Fabrizi ... хозяйка виллы / La padrona della villa
Тони Сперандео / Tony Sperandeo ... помощник Джулиано / Aiutante Giuliano
Брандо Фанано / Brando Fanano ... Пьетро / Pietro
Филиппо Фанано / Filippo Fanano ... Паоло / Paolo
Камилла Адани / Camilla Adami ... художница / La pittrice
Габриэлла Саитта / Gabriella Saitta ... Моника / Monica
Чинция Леоне / Cinzia Leone ... Брунелла / Brunella
Жак Серна / Jacques Sernas ... президент / Il presidente
Лаура Бетти / Laura Betti ... Лаура / Laura
Габриэле Ферцетти / Gabriele Ferzetti ... Гаэтано Кастелли / Gaetano Castelli
Франческо Бениньо / Francesco Benigno ... малолетний преступник на празднике / Giovane delinquente alla fiesta
Татьяна Фарнезе / Tatiana Farnese ... свекровь Мари Кристиан / La suocera di Marie Christine
Альберто Моравиа / Alberto Moravia ...
Руджеро Орландо / Ruggero Orlando ... играет самого себя (в титрах не указан)
Луиза де Сантис / Luisa De Santis … поет саундтрек и появляется в некоторых сценах

Описание: По рассказу Джованны Гальярдо (Giovanna Gagliardo).
Действие происходит в Риме летом 1990 года. В связи с чемпионатом мира по футболу в городе много народу. Французская переводчица Мари Кристиан случайно находит сумку с документами и билетом на самолёт на следующий день. Мари Кристиан решает найти хозяйку сумки - Мириам, чтобы вернуть находку. Но ей приходится иметь дело со многими странными персонажами, в частности, некий Джулиано Феррини, который говорит, что владеет фондовой биржей, хочет помешать ей. Причины, по которым кто-то очень не хочет, чтобы она нашла Мириам, ей неясны, но Мари Кристиан твердо намерена найти её, чтобы незнакомая ей женщина смогла улететь...

Дополнительная информация:
Релиз:

Автор рипа: pmv

Большое спасибо за:
- Перевод и озвучивание непереведённых фрагментов – Urasik
- Синхронизация звука – Urasik
- Аудиодорожку с русской озвучкой - sulfum

* Особая благодарность за предоставленное раритетное видео Saulius Kintera /Luxembourg/ и trecioka !

* Фильм был представлен в Quinzaine des Réalisateurs на 44-м Каннском кинофестивале.

* Саундтрек («Era de 'maggio») исполняется Луизой Де Сантис (Luisa De Santis), которая также появляется в некоторых сценах.
В фильме также в эпизодических ролях участвуют Альберто Моравиа (Alberto Moravia) и Руджеро Орландо (Ruggero Orlando).

* Этот раритетный фильм впервые представлен в сети в русской озвучке и предлагается к просмотру всем любителям кино. К сожалению, найти видео лучшего качества пока не удалось. Поэтому надеемся на ваше понимание и не судите слишком строго.

Фильм озвучен ТК «НТВ»
Режиссёр: Инесса Панина
Звукорежиссёр: Игорь Сапожников
Перевод: Александр Барбаш
Редактор: Татьяна Ильина
Администратор: Виталий Желобкович
Текст читали: Ирина Савина, Марина Тарасова, Олег Форостенко

IMDb = 6,5/10 (11) - http://www.imdb.com/title/tt0240396/
Кинопоиск = - (2) - https://www.kinopoisk.ru/film/caldo-soffocante-1991-90576/

ВНИМАНИЕ!!! РИП ФОРМАТА mkv (кодек H.264) ВОСПРОИЗВОДИТСЯ НЕ НА ВСЕХ БЫТОВЫХ ВИДЕОПЛЕЕРАХ!!!

Параметры файла:
Название: Caldo Soffocante (1991, rus_MVO+ita).mkv
Качество видео: TVrip-AVC
Формат видео: MKV
Размер: 744 МБ (780 483 417 байт)
Продолжительность: 01:38:34
Перевод: Профессиональный (многоголосый закадровый) – НТВ
Оригинальная аудиодорожка: итальянский
Видео: AVC (H264), 672x360 (1.85:1), 23.976 fps, 670 kbps, 0.116 Bits/Pixel
Аудио #1: AC3, 48 kHz, stereo (2 ch), 192 kbps – русский
Аудио #2: AC3, 48 кHz, stereo (2 ch), 192 kbps - итальянский



General
Unique ID : 107484697874049193002534417557952523830 (0x50DCCCC0FF4D1F78B32A785045E5EE36)
Complete name : D:\torrents\Caldo Soffocante (1991, rus_MVO+ita).mkv
Format : Matroska
Format version : Version 4 / Version 2
File size : 744 MiB
Duration : 1 h 38 min
Overall bit rate : 1 056 kb/s
Encoded date : UTC 2018-03-22 02:57:37
Writing application : mkvmerge v21.0.0 ('Tardigrades Will Inherit The Earth') 64-bit
Writing library : libebml v1.3.5 + libmatroska v1.4.8

Video
ID : 1
Format : AVC
Format/Info : Advanced Video Codec
Format profile : High@L4.1
Format settings, CABAC : Yes
Format settings, ReFrames : 16 frames
Codec ID : V_MPEG4/ISO/AVC
Duration : 1 h 38 min
Bit rate : 670 kb/s
Width : 672 pixels
Height : 360 pixels
Display aspect ratio : 1.85:1
Frame rate mode : Constant
Frame rate : 23.976 (23976/1000) FPS
Original frame rate : 23.976 (24000/1001) FPS
Color space : YUV
Chroma subsampling : 4:2:0
Bit depth : 8 bits
Scan type : Progressive
Bits/(Pixel*Frame) : 0.116
Stream size : 472 MiB (63%)
Writing library : x264 core 146 r2538 121396c
Encoding settings : cabac=1 / ref=16 / deblock=1:0:0 / analyse=0x3:0x133 / me=umh / subme=10 / psy=1 / psy_rd=1.00:0.00 / mixed_ref=1 / me_range=24 / chroma_me=1 / trellis=2 / 8x8dct=1 / cqm=0 / deadzone=21,11 / fast_pskip=1 / chroma_qp_offset=-2 / threads=66 / lookahead_threads=2 / sliced_threads=0 / nr=0 / decimate=1 / interlaced=0 / bluray_compat=0 / constrained_intra=0 / bframes=8 / b_pyramid=2 / b_adapt=2 / b_bias=0 / direct=3 / weightb=1 / open_gop=0 / weightp=2 / keyint=250 / keyint_min=23 / scenecut=40 / intra_refresh=0 / rc_lookahead=60 / rc=2pass / mbtree=1 / bitrate=670 / ratetol=1.0 / qcomp=0.60 / qpmin=0 / qpmax=69 / qpstep=4 / cplxblur=20.0 / qblur=0.5 / ip_ratio=1.40 / aq=1:1.00
Language : Italian
Default : Yes
Forced : No

Audio #1
ID : 2
Format : AC-3
Format/Info : Audio Coding 3
Mode extension : CM (complete main)
Format settings, Endianness : Big
Codec ID : A_AC3
Duration : 1 h 38 min
Bit rate mode : Constant
Bit rate : 192 kb/s
Channel(s) : 2 channels
Channel positions : Front: L R
Sampling rate : 48.0 kHz
Frame rate : 31.250 FPS (1536 spf)
Bit depth : 16 bits
Compression mode : Lossy
Stream size : 135 MiB (18%)
Language : Russian
Default : Yes
Forced : No

Audio #2
ID : 3
Format : AC-3
Format/Info : Audio Coding 3
Mode extension : CM (complete main)
Format settings, Endianness : Big
Codec ID : A_AC3
Duration : 1 h 38 min
Bit rate mode : Constant
Bit rate : 192 kb/s
Channel(s) : 2 channels
Channel positions : Front: L R
Sampling rate : 44.1 kHz
Frame rate : 28.711 FPS (1536 spf)
Bit depth : 16 bits
Compression mode : Lossy
Stream size : 135 MiB (18%)
Language : Italian
Default : No
Forced : No








МОИ РАЗДАЧИ НА ФЕНИКСе: ЗДЕСЬ




--------------------
"Спартак" - ЧЕМПИОН!!!

Скрыть подпись


wider2
№2 Отправлено: 22.03.2018 - 18:17


Живёт здесь

Группа: Потребители
Регистрация: 17.10.2006
Сообщений: 1136
Обитает:
Последний раз был:
cегодня в 05:44




Редкость то она конечно редкость...
А каково качество сценария?
Можно ли назвать это легким детективом?

p.s. И кстати говоря, TVrip сделан с канала Сильвио Берлускони


Это сообщение отредактировал wider2 - 22.03.2018 - 18:22
Top
18052006
№3 Отправлено: 22.03.2018 - 18:59


Новичок

Группа: Потребители
Регистрация: 29.04.2010
Сообщений: 95
Обитает:
Последний раз был:
вчера в 18:11




Архивы в порядке, спасибо.
Top
SanSan48
№4 Отправлено: 22.03.2018 - 19:04


"Спартак" - ЧЕМПИОН!!!

Группа: Пользователи
Регистрация: 28.12.2009
Сообщений: 1948
Обитает:
Последний раз был:
cегодня в 18:38




Цитата
( wider2 @ 22.03.2018 - 18:17)
Редкость то она конечно редкость...
А каково качество сценария?
Можно ли назвать это легким детективом?

p.s. И кстати говоря, TVrip сделан с канала Сильвио Берлускони

wider2, Вот посмотрите, тогда и скажите про качество сценария и режиссуру.
А также про жанр фильма.


--------------------
"Спартак" - ЧЕМПИОН!!!

Скрыть подпись
Top
SanSan48
№5 Отправлено: 22.03.2018 - 19:05


"Спартак" - ЧЕМПИОН!!!

Группа: Пользователи
Регистрация: 28.12.2009
Сообщений: 1948
Обитает:
Последний раз был:
cегодня в 18:38




Цитата
( 18052006 @ 22.03.2018 - 18:59)
Архивы в порядке, спасибо.

18052006, Благодарю за информацию!

Приятного всем просмотра!


--------------------
"Спартак" - ЧЕМПИОН!!!

Скрыть подпись
Top
Gorozhanin178
№6 Отправлено: 10.04.2018 - 18:05


Гость

Группа: Новички
Регистрация: 7.03.2018
Сообщений: 7
Обитает:
Последний раз был:
11.04.2018 - 08:03




Цитата
( wider2 @ 22.03.2018 - 18:17)
Редкость то она конечно редкость...
А каково качество сценария?
Можно ли назвать это легким детективом?

p.s. И кстати говоря, TVrip сделан с канала Сильвио Берлускони

Архивы в порядке. Спасибо!
Top
A.S.R.
№7 Отправлено: 7.05.2018 - 18:48


Завсегдатай

Группа: Потребители
Регистрация: 31.08.2007
Сообщений: 314
Обитает:
Последний раз был:
15.10.2018 - 20:38




Большое спасибо за фильм! И - с наступающим праздником!
Top
1 человек просматривает эту тему (1 гость)
« Предыдущая тема | Зарубежные фильмы | Следующая тема »


 



[Script Execution time: 0,0833]   [24 queries used]   [GZIP enabled]