Здравствуйте Гость ( Вход | Регистрация ) Выслать повторно письмо для активации
Вход
Ваше имя Пароль Забыли пароль?
Запомнить Вас?
Войти скрытым?



 Правила раздела Новые сообщения раздела  


 

 Отель Парадизо / Hotel Paradiso (1966), Комедия;Реж.-П.Гленвилл;Роли-А,Гиннесс,Дж.Лоллобриджида,Р.Морли
SanSan48
  №1 Отправлено: 21.04.2016 - 11:13


"Спартак" - ЧЕМПИОН!!!

Группа: Пользователи
Регистрация: 28.12.2009
Сообщений: 1729
Обитает:
Последний раз был:
cегодня в 14:54




Отель «Парадизо» / Hotel Paradiso (1966)



Предыдущие раздачи:
13.07.2010 (TVRip)
23.10.2008 (TVRip)

Жанр: Комедия
Выпущено: Великобритания, Metro-Goldwyn-Mayer (MGM)
Год выпуска: 1966
Премьера (мир): Март 1966 (Великобритания), 14 октября 1966 (США, Нью-Йорк), 21 октября 1966 (Германия (ФРГ))
Сценаристы: Питер Гленвилл / Peter Glenville, Жан-Клод Карье / Jean-Claude Carrière, Жорж Фейдо / Georges Feydeau
Оператор: Анри Декэ / Henri Decaë
Композитор: Лоуренс Розенталь / Laurence Rosenthal
Художники: Франсуа Де Ламот / François de Lamothe, Жак Дюпон / Jacques Dupont, Робер Кристидес / Robert Christidès
Монтажёр: Энн В. Коутс / Anne V. Coates

Режиссёр: Питер Гленвилл / Peter Glenville

В ролях:
Джина Лоллобриджида / Gina Lollobrigida ... Marcelle Cotte
Алек Гиннесс / Alec Guinness ... Benedict Boniface
Роберт Морли / Robert Morley ... Henri Cotte
Пегги Маунт / Peggy Mount ... Angelique Boniface
Дуглас Байн / Douglas Byng ... Mr. Martin, a barrister
Робертсон Хэа / Robertson Hare ... Duke
Дэвид Баттли / David Battley ... George
Энн Бич / Ann Beach ... Victoire, the Boniface's maid
Эддра Гэйл / Eddra Gale (в титрах: Edra Gale) ... Hotel Guest
Дарио Морено / Darío Moreno ... The Turk
Дерек Фоулдс / Derek Fowlds ... Maxime, the Cotte's nephew
Леонард Росситер / Leonard Rossiter ... Inspector
Аким Тамирофф / Akim Tamiroff ... Anniello, owner of Hotel Paradiso
Мари Бель / Marie Bell ... La Grande Antoinette
Андре Баден / André Badin ... Policeman Bringing Convocation to Henri Cotte, в титрах не указан

Описание: По пьесе Мориса Девальере (Maurice Desvallières) и Жоржа Фейдо (Georges Feydeau).
Бенедикт Бонифас (Алек Гиннесс), пока его суровая жена ухаживает за своей больной подругой, решил приударить за соседкой Марселлой Котте ( Джина Лоллобриджида), которая несчастлива в браке с архитектором Анри (Роберт Морли). Бенедикт и Марселла решают провести ночь в отеле Парадизо, пока муж Марселлы исследует архитектурные аномалии. Но оказывается, что объектом исследований Анри является как раз отель Парадизо...

Дополнительная информация: Релиз:

Автор рипа: pmv

Исходник найден в сети - спасибо Pedotriba.

Большое Спасибо за:
- звуковую аудиодорожку с многоголосой озвучкой - Lirik и lehachuev
- синхронизацию звука - pmv

* В данной раздаче фильм представлен в оригинальном широкоэкранном варианте, в отличии от предыдущих раздач на ФЕНИКСе, где аспект был AR = 4:3.

IMDb = 6.3/10 (531) - http://www.imdb.com/title/tt0060520/
Кинопоиск = - (55) - http://www.kinopoisk.ru/film/8769/

ВНИМАНИЕ!!! РИП ФОРМАТА mkv (кодек H.264) ВОСПРОИЗВОДИТСЯ НЕ НА ВСЕХ БЫТОВЫХ ВИДЕОПЛЕЕРАХ!!!

Параметры файла:
Название: Hotel Paradiso (1966, rus_MVO+eng).mkv
Качество видео: DVDRip-AVC
Формат видео: MKV
Размер: 1,36 ГБ (1 469 408 446 bytes)
Продолжительность: 01:38:40
Перевод: Профессиональный (многоголосый закадровый)
Видео: AVC (H264), 720@864x360 (2.40:1), 23.976 fps, 1600 Kbps, 0.257 Bits/Pixel
Аудио #1: AC3, 44,1 KHz, stereo (2 ch), 192 Kbps – русский
Аудио #2: AC3, 48 KHz, stereo (2 ch), 192.00 kbps – английский



General
Unique ID : 241499350113499028834412197693550450735 (0xB5AF153F0D9A385F9BEF296EB597582F)
Complete name : D:\torrents\Hotel Paradiso (1966, rus_MVO+eng).mkv
Format : Matroska
Format version : Version 4 / Version 2
File size : 1.37 GiB
Duration : 1h 38mn
Overall bit rate : 1 986 Kbps
Encoded date : UTC 2016-04-19 13:54:37
Writing application : mkvmerge v9.0.1 ('Obstacles') 64bit
Writing library : libebml v1.3.3 + libmatroska v1.4.4
DURATION : 01:38:39.968000000
NUMBER_OF_FRAMES : 184999
NUMBER_OF_BYTES : 142079232
_STATISTICS_WRITING_APP : mkvmerge v9.0.1 ('Obstacles') 64bit
_STATISTICS_WRITING_DATE_UTC : 2016-04-19 13:54:37
_STATISTICS_TAGS : BPS DURATION NUMBER_OF_FRAMES NUMBER_OF_BYTES

Video
ID : 1
Format : AVC
Format/Info : Advanced Video Codec
Format profile : High@L4.1
Format settings, CABAC : Yes
Format settings, ReFrames : 16 frames
Codec ID : V_MPEG4/ISO/AVC
Duration : 1h 38mn
Bit rate : 1 600 Kbps
Width : 720 pixels
Height : 360 pixels
Display aspect ratio : 2.40:1
Original display aspect ratio : 2.000
Frame rate mode : Constant
Frame rate : 23.976 fps
Color space : YUV
Chroma subsampling : 4:2:0
Bit depth : 8 bits
Scan type : Progressive
Bits/(Pixel*Frame) : 0.257
Stream size : 1.08 GiB (79%)
Writing library : x264 core 146 r2538 121396c
Encoding settings : cabac=1 / ref=16 / deblock=1:0:0 / analyse=0x3:0x133 / me=umh / subme=10 / psy=1 / psy_rd=1.00:0.00 / mixed_ref=1 / me_range=24 / chroma_me=1 / trellis=2 / 8x8dct=1 / cqm=0 / deadzone=21,11 / fast_pskip=1 / chroma_qp_offset=-2 / threads=36 / lookahead_threads=2 / sliced_threads=0 / nr=0 / decimate=1 / interlaced=0 / bluray_compat=0 / constrained_intra=0 / bframes=8 / b_pyramid=2 / b_adapt=2 / b_bias=0 / direct=3 / weightb=1 / open_gop=0 / weightp=2 / keyint=250 / keyint_min=23 / scenecut=40 / intra_refresh=0 / rc_lookahead=60 / rc=2pass / mbtree=1 / bitrate=1600 / ratetol=1.0 / qcomp=0.60 / qpmin=0 / qpmax=69 / qpstep=4 / cplxblur=20.0 / qblur=0.5 / ip_ratio=1.40 / aq=1:1.00
Language : English
Default : Yes
Forced : No

Audio #1
ID : 2
Format : AC-3
Format/Info : Audio Coding 3
Mode extension : CM (complete main)
Format settings, Endianness : Big
Codec ID : A_AC3
Duration : 1h 38mn
Bit rate mode : Constant
Bit rate : 192 Kbps
Channel(s) : 2 channels
Channel positions : Front: L R
Sampling rate : 44.1 KHz
Bit depth : 16 bits
Compression mode : Lossy
Stream size : 135 MiB (10%)
Language : Russian
Default : Yes
Forced : No

Audio #2
ID : 3
Format : AC-3
Format/Info : Audio Coding 3
Mode extension : CM (complete main)
Format settings, Endianness : Big
Codec ID : A_AC3
Duration : 1h 38mn
Bit rate mode : Constant
Bit rate : 192 Kbps
Channel(s) : 2 channels
Channel positions : Front: L R
Sampling rate : 48.0 KHz
Bit depth : 16 bits
Compression mode : Lossy
Stream size : 135 MiB (10%)
Language : English
Default : No
Forced : No








МОИ РАЗДАЧИ НА ФЕНИКСе: ЗДЕСЬ




Это сообщение отредактировал SanSan48 - 21.04.2016 - 17:21


--------------------
"Спартак" - ЧЕМПИОН!!!

Скрыть подпись
sobinov
№2 Отправлено: 21.04.2016 - 12:43


Живёт здесь

Группа: Потребители
Регистрация: 18.07.2009
Сообщений: 3170
Обитает:
Последний раз был:
cегодня в 16:07




Архивы в в порядке. Спасибо!
Top
SanSan48
№3 Отправлено: 21.04.2016 - 12:47


"Спартак" - ЧЕМПИОН!!!

Группа: Пользователи
Регистрация: 28.12.2009
Сообщений: 1729
Обитает:
Последний раз был:
cегодня в 14:54




Цитата
( sobinov @ 21.04.2016 - 12:43)
Архивы в в порядке. Спасибо!

sobinov, Благодарю за сообщение!


--------------------
"Спартак" - ЧЕМПИОН!!!

Скрыть подпись
Top
mig5201
№4 Отправлено: 21.04.2016 - 18:29


Завсегдатай

Группа: Форумчане
Регистрация: 29.05.2006
Сообщений: 402
Обитает:
Последний раз был:
вчера в 20:34




SanSan48, спасибо за классное кино!
Top
vadim_st
№5 Отправлено: 22.04.2016 - 21:25


Прохожий

Группа: Новички
Регистрация: 30.11.2013
Сообщений: 18
Последний раз был:
20.12.2016 - 20:52




Скачал. Спасибо.
Top
psw_ukr
№6 Отправлено: 26.06.2016 - 15:24


Гость

Группа: Новички
Регистрация: 24.10.2011
Сообщений: 3
Последний раз был:
29.06.2016 - 15:54




Большое спасибо SanSan48. Классика!
Top
1 человек просматривает эту тему (1 гость)
« Предыдущая тема | Зарубежные фильмы | Следующая тема »


 



[Script Execution time: 0,0552]   [23 queries used]   [GZIP enabled]