Заходят многие - остаются лучшие!
Здравствуйте Гость ( Вход | Регистрация ) Выслать повторно письмо для активации
Вход
Ваше имя Пароль Забыли пароль?
Запомнить Вас?
Войти скрытым?



 Правила раздела Новые сообщения раздела  


 

 Еще один рассвет / Another Dawn (1937), Кэй Френсис, Эррол Флинн
surzhoks
  №1 Отправлено: 18.01.2018 - 13:21


Живёт здесь

Группа: Аксакалы
Регистрация: 17.03.2008
Сообщений: 1179
Обитает:
Последний раз был:
cегодня в 13:11




Еще один рассвет / Another Dawn


Страна: США
Студия: Warner Bros. Pictures
Жанр: драма, мелодрама
Год выпуска: 1937
Продолжительность: 01:13:21
Режиссер: Уильям Дитерле / William Dieterle
Композитор: Эрих Вольфганг Корнгольд / Erich Wolfgang Korngold

В ролях:
Кэй Френсис / Kay Francis ... Julia Ashton Wister
Эррол Флинн / Errol Flynn ... Captain Denny Roark
Иэн Хантер / Ian Hunter ... Colonel John Wister
Фрида Инескорт / Frieda Inescort ... Grace Roark
Герберт Мандин / Herbert Mundin ... Wilkins, Wister's Orderly
Г.П. Хантли / G.P. Huntley (в титрах: G.P. Huntley Jr.) ... Lord Alden
Билли Беван / Billy Bevan ... Pvt. Hawkins
Клайд Кук / Clyde Cook ... Sergeant Murphy
Ричард Пауэлл / Richard Powell ... Pvt. Henderson
Кеннет Хантер / Kenneth Hunter ... Sir Chas. Benton
Мэри Форбс / Mary Forbes ... Mrs. Lydia Benton
Эйли Мэлион / Eily Malyon ... Mrs. Farnold

Описание: Возвращаясь со службы в пустыне Сахара, полковник-британец Джон Уистер встречает прекрасную американку Джулию Эштон и, влюбившись, просит девушку стать его женой. Джулия принимает его предложение, но честно предупреждает полковника, что не в состоянии ответить на его любовь, так как её сердце навеки принадлежит её жениху-летчику, самолет которого потерпел аварию и разбился. А вскоре после свадьбы Джулия знакомится с лучшим другом Уистера, обаятельным капитаном Денни Рорком, так похожим на её погибшего жениха...
Экранизация рассказа Уильяма Сомерсета Моэма.

- Бетт Дэвис была одной из претенденток на роль Джулии Уистер.
Доп. информация:
Огромное спасибо всем причастным к релизу:
рип - Магда,
перевод фильма - Северный,
озвучивание фильма (по русским субтитрам) - fiendover (Виктор Рутилов),
работа со звуком и реавторинг исходного DVD- AlekceyR76,
финансовая поддержка перевода и озвучивания фильма:
Магда, Lafajet, jasenka, елена 22, yanaelisa, voostorg, борюська, surzhoks, Ugo927, sindzi, HippopotamusIV, cementit, leoder, duum100, spartakeynoir

Архивы созданы RAR-архиватором с добавлением 3% на восстановление и снабжены sfv-проверочником.
Просьба к первому скачавшему отписаться о сохранности архивов на источнике раздачи.

Раздача рассчитана на 2 месяца. На просмотр линка и скачивание 5 дней!
В случае если вы встали в очередь, а затем отказываетесь от скачивания без объяснения причин, возможен отказ в последующих моих раздачах.



Полное имя :Another Dawn.avi
Формат : AVI
Формат/Информация : Audio Video Interleave
Размер файла : 1,37 Гбайт
Продолжительность : 1 ч. 13 м.
Общий поток : 2673 Кбит/сек
Программа кодирования : VirtualDubMod 1.5.10.3 | www.virtualdub-fr.org || (build 2550/release)
Библиотека кодирования : VirtualDubMod build 2550/release

Видео
Идентификатор : 0
Формат : MPEG-4 Visual
Профиль формата : Advanced Simple@L5
Параметр BVOP формата : 2
Параметр QPel формата : Нет
Параметр GMC формата : Без точки перехода
Параметр матрицы формата : Default (H.263)
Идентификатор кодека : DX50
Идентификатор кодека/Подсказка : DivX 5
Продолжительность : 1 ч. 13 м.
Битрейт : 2275 Кбит/сек
Ширина : 640 пикселей
Высота : 480 пикселей
Соотношение сторон : 4:3
Частота кадров : 23,976 кадра/сек
Цветовое пространство : YUV
Субдискретизация насыщенности : 4:2:0
Битовая глубина : 8 бит
Тип развёртки : Прогрессивная
Метод сжатия : С потерями
Бит/(Пиксели*Кадры) : 0.309
Размер потока : 1,17 Гбайт (85%)
Библиотека кодирования : XviD 73

Аудио #1
Идентификатор : 1
Формат : AC-3
Формат/Информация : Audio Coding 3
Расширение режима : CM (complete main)
Параметр Endianness формата : Big
Идентификатор кодека : 2000
Продолжительность : 1 ч. 13 м.
Вид битрейта : Постоянный
Битрейт : 192 Кбит/сек
Каналы : 2 канала
Расположение каналов : Front: L R
Частота : 48,0 КГц
Битовая глубина : 16 бит
Метод сжатия : С потерями
Размер потока : 101 Мбайт (7%)
Выравнивание : Разделение по промежуткам
Продолжительность промежутка : 42 мс. (1,00 видеокадр)
Время предзагрузки промежутка : 500 мс.

Аудио #2
Идентификатор : 2
Формат : AC-3
Формат/Информация : Audio Coding 3
Расширение режима : CM (complete main)
Параметр Endianness формата : Big
Идентификатор кодека : 2000
Продолжительность : 1 ч. 13 м.
Вид битрейта : Постоянный
Битрейт : 192 Кбит/сек
Каналы : 2 канала
Расположение каналов : Front: L R
Частота : 48,0 КГц
Битовая глубина : 16 бит
Метод сжатия : С потерями
Размер потока : 101 Мбайт (7%)
Выравнивание : Разделение по промежуткам
Продолжительность промежутка : 42 мс. (1,00 видеокадр)
Время предзагрузки промежутка : 500 мс.




Это сообщение отредактировал surzhoks - 18.01.2018 - 20:22


сергей0808
№2 Отправлено: 18.01.2018 - 16:44


Старожил

Группа: Пользователи
Регистрация: 5.08.2009
Сообщений: 950
Обитает:
Последний раз был:
8.03.2020 - 18:37




Пароль не подходит.
Top
vjub58
№3 Отправлено: 18.01.2018 - 18:53


Практикующий эсквайр

Группа: Аксакалы
Регистрация: 6.12.2005
Сообщений: 5447
Обитает:
Последний раз был:
cегодня в 17:55




Цитата
( сергей0808 @ 18.01.2018 - 18:44)
Пароль не подходит.

Аналогично. Проверка по SFV проходит нормально, но пароль не подходит. pain25.gif pain25.gif
Top
surzhoks
№4 Отправлено: 18.01.2018 - 20:21


Живёт здесь

Группа: Аксакалы
Регистрация: 17.03.2008
Сообщений: 1179
Обитает:
Последний раз был:
cегодня в 13:11




Просьба всем скачавшим перекачать заново архивы, почему-то пароль действительно не подходил, я переархивировала заново и перезалила.
Прошу прощения за неудобства.
Top
vjub58
№5 Отправлено: 18.01.2018 - 20:31


Практикующий эсквайр

Группа: Аксакалы
Регистрация: 6.12.2005
Сообщений: 5447
Обитает:
Последний раз был:
cегодня в 17:55




Спасибо, теперь все ОК! pozdrav_buket.gif happy_fly.gif
Top
surzhoks
№6 Отправлено: 18.01.2018 - 20:32


Живёт здесь

Группа: Аксакалы
Регистрация: 17.03.2008
Сообщений: 1179
Обитает:
Последний раз был:
cегодня в 13:11




vjub58, спасибо!
Top
сергей0808
№7 Отправлено: 19.01.2018 - 03:37


Старожил

Группа: Пользователи
Регистрация: 5.08.2009
Сообщений: 950
Обитает:
Последний раз был:
8.03.2020 - 18:37




Всё распаковалось без ошибок. Большое спасибо за фильм!
Top
1 человек просматривает эту тему (1 гость)
« Предыдущая тема | Зарубежные фильмы | Следующая тема »


 



[Script Execution time: 0,0981]   [22 queries used]   [GZIP enabled]