Заходят многие - остаются лучшие!
Здравствуйте Гость ( Вход | Регистрация ) Выслать повторно письмо для активации
Вход
Ваше имя Пароль Забыли пароль?
Запомнить Вас?
Войти скрытым?



 Правила раздела Новые сообщения раздела  


 

 Мир женщины / Woman's World (1954), драма / режиссер Жан Негулеско
surzhoks
  №1 Отправлено: 5.01.2018 - 17:18


Живёт здесь

Группа: Аксакалы
Регистрация: 17.03.2008
Сообщений: 1058
Обитает:
Последний раз был:
22.05.2018 - 20:28




Мир женщины / Woman's World


Страна: США
Студия: 20th Century Fox Film Corporation
Жанр: драма
Год выпуска: 1954
Продолжительность: 01:34:27
Режиссер: Жан Негулеско / Jean Negulesco
Композиторы: Сирил Дж. Мокридж / Cyril J. Mockridge

В ролях: Клифтон Уэбб / Clifton Webb ... Ernest Gifford
Джун Аллисон / June Allyson ... Katie Baxter
Корнел Уайлд / Cornel Wilde ... Bill Baxter
Лорен Бэколл / Lauren Bacall ... Elizabeth Burns
Фред МакМюррэй / Fred MacMurray ... Sid Burns
Ван Хефлин / Van Heflin ... Jerry Talbot
Арлин Даль / Arlene Dahl ... Carol Talbot
Эллиот Рид / Elliott Reid ... Tony Andrews
Маргало Гиллмор / Margalo Gillmore ... Mrs. Evelyn Andrews
Алан Рид / Alan Reed ... Tomaso
Дэвид Хоффман / David Hoffman ... Jabernowski
Родни Белл / Rodney Bell ... Executive Reception Guest, в титрах не указан
Билли Бёрд / Billie Bird ... Woman in Bargain Basement, в титрах не указана
Пол Брэдли / Paul Bradley ... Waiter, в титрах не указан

Описание: Владелец огромной корпорации Эрнест Гиффорд, абсолютно уверенный в том, что успех мужчины во многом зависит от его жены, приглашает к себе три семейных пары, глава одной из которых получит место главного менеджера его компании. В Нью-Йорк приезжают жесткий в принятии решений Джерри Тэлбот и его красавица жена Кэрол, готовая использовать свою красоту для построения карьеры мужа; Сид Бёрнс, принёсший в жертву карьере своё здоровье и его жена Элизабет, которая делает всё, чтобы спасти своего мужа; Билл Бакстер и его любящая жена Кэти, которая опасается, что продвижение по службе мужа ознаменует конец их идиллического семейного существования.

Доп. информация:
Огромное спасибо всем причастным к релизу:
рип - Магда,
перевод и озвучивание фильма - Алексей Яковлев,
работа со звуком и реавторинг исходного DVD- AlekceyR76,
финансовая поддержка озвучивания фильма: Lafajet, Магда, jasenka, елена 22, yanaelisa, leoder, Ugo927, surzhoks, voostorg, борюська, HippopotamusIV, cementit, GalaUkr, Лямдазонд, mumzik69, sapog1960, Simpun, Patsy+, exact
Раздача посвящена 100-летию Джун Эллисон (7 октября 1917 – 8 июля 2006)

Архивы созданы RAR-архиватором с добавлением 3% на восстановление и снабжены sfv-проверочником.
Просьба к первому скачавшему отписаться о сохранности архивов на источнике раздачи.

Раздача рассчитана на 2 месяца. На просмотр линка и скачивание 5 дней!
В случае если вы встали в очередь, а затем отказываетесь от скачивания без объяснения причин, возможен отказ в последующих моих раздачах.



Полное имя :Woman's World.avi
Формат : AVI
Формат/Информация : Audio Video Interleave
Размер файла : 1,46 Гбайт
Продолжительность : 1 ч. 34 м.
Общий поток : 2212 Кбит/сек
Программа кодирования : VirtualDubMod 1.5.10.3 | www.virtualdub-fr.org || (build 2550/release)
Библиотека кодирования : VirtualDubMod build 2550/release

Видео
Идентификатор : 0
Формат : MPEG-4 Visual
Профиль формата : Advanced Simple@L5
Параметр BVOP формата : 2
Параметр QPel формата : Нет
Параметр GMC формата : Без точки перехода
Параметр матрицы формата : Default (H.263)
Идентификатор кодека : DX50
Идентификатор кодека/Подсказка : DivX 5
Продолжительность : 1 ч. 34 м.
Битрейт : 1814 Кбит/сек
Ширина : 720 пикселей
Высота : 288 пикселей
Соотношение сторон : 2,500
Частота кадров : 23,976 кадра/сек
Цветовое пространство : YUV
Субдискретизация насыщенности : 4:2:0
Битовая глубина : 8 бит
Тип развёртки : Прогрессивная
Метод сжатия : С потерями
Бит/(Пиксели*Кадры) : 0.365
Размер потока : 1,20 Гбайт (82%)
Библиотека кодирования : XviD 73

Аудио #1
Идентификатор : 1
Формат : AC-3
Формат/Информация : Audio Coding 3
Расширение режима : CM (complete main)
Параметр Endianness формата : Big
Идентификатор кодека : 2000
Продолжительность : 1 ч. 34 м.
Вид битрейта : Постоянный
Битрейт : 192 Кбит/сек
Каналы : 2 канала
Расположение каналов : Front: L R
Частота : 48,0 КГц
Битовая глубина : 16 бит
Метод сжатия : С потерями
Размер потока : 130 Мбайт (9%)
Выравнивание : Разделение по промежуткам
Продолжительность промежутка : 42 мс. (1,00 видеокадр)
Время предзагрузки промежутка : 500 мс.

Аудио #2
Идентификатор : 2
Формат : AC-3
Формат/Информация : Audio Coding 3
Расширение режима : CM (complete main)
Параметр Endianness формата : Big
Идентификатор кодека : 2000
Продолжительность : 1 ч. 34 м.
Вид битрейта : Постоянный
Битрейт : 192 Кбит/сек
Каналы : 2 канала
Расположение каналов : Front: L R
Частота : 48,0 КГц
Битовая глубина : 16 бит
Метод сжатия : С потерями
Размер потока : 130 Мбайт (9%)
Выравнивание : Разделение по промежуткам
Продолжительность промежутка : 42 мс. (1,00 видеокадр)
Время предзагрузки промежутка : 500 мс.




kyo
№2 Отправлено: 5.01.2018 - 20:05


Живёт здесь

Группа: Потребители
Регистрация: 21.07.2007
Сообщений: 1957
Обитает:
Последний раз был:
19.05.2018 - 04:30




Архивы в порядке, спасибо !
Top
1 человек просматривает эту тему (1 гость)
« Предыдущая тема | Зарубежные фильмы | Следующая тема »


 



[Script Execution time: 0,0574]   [22 queries used]   [GZIP enabled]