Заходят многие - остаются лучшие!
Здравствуйте Гость ( Вход | Регистрация ) Выслать повторно письмо для активации
Вход
Ваше имя Пароль Забыли пароль?
Запомнить Вас?
Войти скрытым?



 Правила раздела Новые сообщения раздела  


 

 Дети капитана Гранта (1936), Приключения,экранизация;Реж.-В.Вайншток;Роли-Н.Черкасов,Я.Сегель,Ю.Юрь
SanSan48
  №1 Отправлено: 4.06.2014 - 19:25


"Спартак" - ЧЕМПИОН!!!

Группа: Пользователи
Регистрация: 28.12.2009
Сообщений: 1943
Обитает:
Последний раз был:
cегодня в 18:39




Дети капитана Гранта (1936)



Предыдущая раздача (с другими параметрами) (23.08.2010) DVD
Предыдущая раздача (с другими параметрами) (13.11.2008) DVD5
Предыдущая раздача (с другими параметрами) (11.06.2007) TV


Название: Дети капитана Гранта
Жанр: Приключения, детский, музыкальный, экранизация
Выпущено: СССР, «Мосфильм»
Год выпуска: 1936
Премьера (СССР): 15 сентября 1936
Премьера (мир): 5 июня 1938 (Финляндия)
Сценарист: Олег Леонидов
Операторы: Аркадий Кальцатый, Александр Птушко (макетные съемки)
Композитор: Исаак Дунаевский
Тексты песен: Василий Лебедев-Кумач
Художники: Владимир Баллюзек, Яков Ривош
Монтажер: Татьяна Лихачева

Режиссёр: Владимир Вайншток

В ролях:
Юрий Юрьев … капитан Том Грант
Иван Чувелев … боцман Айртон
Николай Черкасов … Жак Паганель, секретарь Парижского географического общества
Мария Стрелкова … Елена Гленарван
Николай Витовтов … Эдуард Гленарван
Ольга Базанова … Мэри Грант
Яков Сегель … Роберт Грант
Давид Гутман … Мак-Набс
Михаил Романов … капитан Джон Мангльс
Н.Аделунг … Талькав
Николай Мичурин … хозяин таверны
Иона Бий-Бродский … консул (нет в титрах)
вокал
Николай Черкасов … "Жил отважный капитан. Он объездил много стран…" (И.Дунаевский - В.Лебедев-Кумач)
К. Крашенинникова вместе с Лялей Сатеевой … "А ну-ка, песню нам пропой, веселый ветер…" (И.Дунаевский - В.Лебедев-Кумач)

Описание: По одноимённому роману Жюля Верна.
Яхта «Дункан» совершает кругосветное плавание в поисках капитана Гранта, потерпевшего крушение где-то в южном полушарии. Отважные путешественники пересекли Южную Америку, Австралию, достигли берегов Новой Зеландии, но их почти безнадёжные поиски оказались все-таки небезуспешными…




IMDb = Ratings: 7,3/10 from 134 users
Кинопоиск = 7.605 (868)

Размер файла: 1368.87 Mb ( 1,435,366,640 bytes )

Продолжительность: 01:24:33.399 (126835 frames)

ОГРОМНАЯ БЛАГОДАРНОСТЬ pmv за рип с улучшенным качеством видео и аудио.

Исходник найден в сети.

Благодарность за восстановленную оригинальную аудиодорожку AVV_UA с Рутрекера.



General
Complete name : D:\torrents\Дети капитана Гранта (1936).avi
Format : AVI
Format/Info : Audio Video Interleave
File size : 1.34 GiB
Duration : 1h 24mn
Overall bit rate : 2 263 Kbps
Writing library : VirtualDub build 35512/release

Video
ID : 0
Format : MPEG-4 Visual
Format profile : Advanced Simple@L5
Format settings, BVOP : Yes
Format settings, QPel : No
Format settings, GMC : No warppoints
Format settings, Matrix : Default (H.263)
Codec ID : XVID
Codec ID/Hint : XviD
Duration : 1h 24mn
Bit rate : 2 158 Kbps
Width : 720 pixels
Height : 544 pixels
Display aspect ratio : 4:3
Frame rate : 25.000 fps
Resolution : 8 bits
Colorimetry : 4:2:0
Scan type : Progressive
Bits/(Pixel*Frame) : 0.220
Stream size : 1.27 GiB (95%)
Writing library : XviD 73

Audio
ID : 1
Format : MPEG Audio
Format version : Version 1
Format profile : Layer 3
Codec ID : 55
Codec ID/Hint : MP3
Duration : 1h 24mn
Bit rate mode : Constant
Bit rate : 96.0 Kbps
Channel(s) : 1 channel
Sampling rate : 48.0 KHz
Stream size : 58.1 MiB (4%)
Alignment : Split accross interleaves
Interleave, duration : 40 ms (1.00 video frame)
Interleave, preload duration : 500 ms

В архивах добавлено 3% на восстановление

Благодарность за постер - афиши советского времени - johnnyleo

ВСЕМ ПРИЯТНОГО ПРОСМОТРА !!!
Перезаливает для архива: медикус




Это сообщение отредактировал VudoS - 14.07.2015 - 14:42


--------------------
"Спартак" - ЧЕМПИОН!!!

Скрыть подпись
bondsun
№2 Отправлено: 4.06.2014 - 20:07


кучерявый

Группа: Потребители
Регистрация: 17.08.2009
Сообщений: 4511
Обитает:
Последний раз был:
cегодня в 18:35





Благодарствую, архивы в порядке.


--------------------
Пусть рушится мир весь вокруг, пополам,
Пусть часто фортуна не прёт.
Не кофе нас должен бодрить по утрам,
А тот, кто его подаёт.

happy.gif

Скрыть подпись
Top
SanSan48
№3 Отправлено: 5.06.2014 - 05:06


"Спартак" - ЧЕМПИОН!!!

Группа: Пользователи
Регистрация: 28.12.2009
Сообщений: 1943
Обитает:
Последний раз был:
cегодня в 18:39




Цитата
( bondsun @ 4.06.2014 - 20:07)
Благодарствую, архивы в порядке.

bondsun, Спасибо за сообщение!


--------------------
"Спартак" - ЧЕМПИОН!!!

Скрыть подпись
Top
медикус
№4 Отправлено: 14.10.2014 - 20:28


Живёт здесь

Группа: Модераторы
Регистрация: 22.07.2008
Сообщений: 9824
Обитает:
Последний раз был:
cегодня в 17:51




Фильм залит в архив "Детские фильмы".


--------------------
"Тихо шифером шурша,
Крыша едет не спеша..."
Не помню, кто написал, но дома с этим согласны yes.gif

ПРОЕКТ: В музей - без поводка

Скрыть подпись
Top
1 человек просматривает эту тему (1 гость)
« Предыдущая тема | Отечественное кино | Следующая тема »


 



[Script Execution time: 0,0649]   [24 queries used]   [GZIP enabled]