Заходят многие - остаются лучшие!
Здравствуйте Гость ( Вход | Регистрация ) Выслать повторно письмо для активации
Вход
Ваше имя Пароль Забыли пароль?
Запомнить Вас?
Войти скрытым?



 Правила раздела Новые сообщения раздела  


 

 Звёзды Эгера (2 серии) / Egri csillagok / Stars of Eger (1968), Приключения,исторический;Реж-З.Варкони;Роли-И.Шинкович,И.Ковач,В.Венце
SanSan48
  №1 Отправлено: 12.01.2020 - 16:30


"Спартак" - ЧЕМПИОН!!!

Группа: Пользователи
Регистрация: 28.12.2009
Сообщений: 2113
Обитает:
Последний раз был:
cегодня в 11:57




Звёзды Эгера (2 серии) / Egri csillagok / Stars of Eger (1968)



Предыдущие раздачи:
6.09.2010 (DVDrip)
15.07.2007 (DVDrip)
20.07.2007 (DVDrip) (Архив)

Жанр: Приключения, исторический, драма
Выпущено: Венгрия, MAFILM Budapest Filmstúdiói
Год выпуска: 1968
Премьера (мир): 19 декабря 1968 (Венгрия), 14 ноября 1969 (Германия (ГДР))
Премьера (СССР): 11 января 1971
Сценарист: Иштван Немешкюрть / István Nemeskürty
Оператор: Ференц Сеченьи / Ferenc Szécsényi
Композитор: Ференц Фаркаш / Ferenc Farkas
Художники: Эндре Сас / Endre Szász, Тамаш Вайер / Tamás Vayer, Фанни Кеменеш / Fanny Kemenes,
Рудольф Лэнг / Rudolf Lang, Эржебет Миалковски / Erzsébet Mialkovszky, Больдижар Шимонка / Boldizsár Simonka, Йожеф Шариц / József Sáritz
Монтажёр: Ференцне Сеченьи / Ferencné Szécsényi

Режиссёр: Золтан Варконьи / Zoltán Várkonyi

В ролях:
Имре Шинкович / Imre Sinkovits ... Dobó István - дублирует Игорь Ефимов
Иштван Ковач / István Kovács ... Bornemissza Gergely - дублирует Лев Жуков
Вера Венцель / Vera Venczel ... Cecey Éva - дублирует Елена Ставрогина (Тодорова)
Дьёрдь Корга / György Korga ... Bornemissza Jancsika
Габор Мади Сабо / Gábor Mádi Szabó ... Cecey
Вера Семере / Vera Szemere ... Ceceyné
Ева Рутткаи / Éva Ruttkai ... Izabella Királynõ - дублирует Галина Теплинская
Дьёрдь Барди / György Bárdy ... Jumurdzsák
Тибор Бичкеи / Tibor Bitskey ... Mekcsey István
Ференц Бешшеньеи / Ferenc Bessenyei ... Török Bálint - дублирует Михаил Дубрава
Золтан Латинович / Zoltán Latinovits ... Varsányi Imre - дублирует Сергей Полежаев
Золтан Варконьи / Zoltán Várkonyi ... I. Ferdinánd császár - дублирует Николай Гаврилов
Петер Бенкё / Péter Benkö ... Török János - дублирует Станислав Соколов
Габор Агарди / Gábor Agárdi ... Sárközy cigány
Рудольф Шомодьвари / Rudolf Somogyvári ... Hegedûs István
Ласло Тахи Тот / László Tahi Tóth ... Kobzos Ádám
Геза Торди / Géza Tordy ... Miklós diák

Описание: По одноимённому роману Гезы Гардоньи (Géza Gárdonyi).
Действие картины начинается в ослабленной междоусобицей Венгрии (1530 - 1556 гг.) после битвы при Мохаче, когда в бою с превосходящими турецкими силами пал венгерский король Людовик II. С новой силой разгорается борьба за венгерскую корону. Воспользовавшись этим, турки снова напали на Венгрию, распавшуюся на три части. Но в 1556 году они впервые наталкиваются на серьёзное сопротивление венгров. Небольшой отряд капитана Иштвана Добо у крепости Эгер останавливает сорокатысячную турецкую армию…

Дополнительная информация: Релиз:

Исходник найден в сети.

Автор рипа: pmv

Большое спасибо за:
- аудиодорожку с советским дубляжом - milta, stepa
- синхронизацию звуковой аудиодорожки - pmv

* Фильм дублирован на киностудии Ленфильм в 1969 году и выпущен в прокат 11 января 1971 года.
Режиссёр дубляжа: Владимир Скворцов
Роли дублировали: Лев Жуков, Елена Ставрогина (Тодорова), Игорь Ефимов, Галина Теплинская, Михаил Дубрава, Сергей Полежаев, Станислав Соколов, Николай Гаврилов

IMDb = 7,4/10 (1965) - https://www.imdb.com/title/tt0062925/
Кинопоиск = 6.887 (116) - https://www.kinopoisk.ru/film/69256/

ВНИМАНИЕ!!! РИП ФОРМАТА mkv (кодек H.264) ВОСПРОИЗВОДИТСЯ НЕ НА ВСЕХ БЫТОВЫХ ВИДЕОПЛЕЕРАХ!!!

Параметры файла:
Название: Egri csillagok (1968, rus_dub+hun+eng_sub).mkv
Качество видео: DVDRip-AVC
Формат видео: MKV
Размер: 1,41 ГБ (1 518 133 363 байт)
Продолжительность: 02:26:33
Перевод: Профессиональный (дублированный) – советский дубляж (Ленфильм)
Субтитры: английские
Оригинальная аудиодорожка: венгерский
Видео: AVC (H264), 720@1024x440 (2.35:1), 25 fps, 1000 kbps, 0.126 Bits/Pixel
Аудио #1: AC3, 48 KHz, stereo (2 ch), 192 kbps – советский дубляж
Аудио #2: AC3, 48 KHz, stereo (2 ch), 192 kbps - венгерский



General
Unique ID : 259193795111964390121709236380076456490 (0xC2FEE8BD6F62A79388D67C7FC241BA2A)
Complete name : D:\torrents\Egri csillagok (1968, rus_dub+hun+eng_sub).mkv
Format : Matroska
Format version : Version 4 / Version 2
File size : 1.41 GiB
Duration : 2 h 26 min
Overall bit rate : 1 381 kb/s
Encoded date : UTC 2020-01-09 08:42:24
Writing application : mkvmerge v42.0.0 ('Overtime') 64-bit
Writing library : libebml v1.3.10 + libmatroska v1.5.2

Video
ID : 1
Format : AVC
Format/Info : Advanced Video Codec
Format profile : High@L4.1
Format settings, CABAC : Yes
Format settings, RefFrames : 16 frames
Codec ID : V_MPEG4/ISO/AVC
Duration : 2 h 26 min
Bit rate : 1 000 kb/s
Width : 720 pixels
Height : 440 pixels
Display aspect ratio : 2.35:1
Original display aspect ratio : 16:10
Frame rate mode : Constant
Frame rate : 25.000 FPS
Color space : YUV
Chroma subsampling : 4:2:0
Bit depth : 8 bits
Scan type : Progressive
Bits/(Pixel*Frame) : 0.126
Stream size : 1.02 GiB (72%)
Writing library : x264 core 146 r2538 121396c
Encoding settings : cabac=1 / ref=16 / deblock=1:0:0 / analyse=0x3:0x133 / me=umh / subme=10 / psy=1 / psy_rd=1.00:0.00 / mixed_ref=1 / me_range=24 / chroma_me=1 / trellis=2 / 8x8dct=1 / cqm=0 / deadzone=21,11 / fast_pskip=1 / chroma_qp_offset=-2 / threads=48 / lookahead_threads=3 / sliced_threads=0 / nr=0 / decimate=1 / interlaced=0 / bluray_compat=0 / constrained_intra=0 / bframes=8 / b_pyramid=2 / b_adapt=2 / b_bias=0 / direct=3 / weightb=1 / open_gop=0 / weightp=2 / keyint=250 / keyint_min=25 / scenecut=40 / intra_refresh=0 / rc_lookahead=60 / rc=2pass / mbtree=1 / bitrate=1000 / ratetol=1.0 / qcomp=0.60 / qpmin=0 / qpmax=69 / qpstep=4 / cplxblur=20.0 / qblur=0.5 / ip_ratio=1.40 / aq=1:1.00
Language : Hungarian
Default : Yes
Forced : No

Audio #1
ID : 2
Format : AC-3
Format/Info : Audio Coding 3
Format settings, Endianness : Big
Codec ID : A_AC3
Duration : 2 h 24 min
Bit rate mode : Constant
Bit rate : 192 kb/s
Channel(s) : 2 channels
Channel positions : Front: L R
Sampling rate : 48.0 kHz
Frame rate : 31.250 FPS (1536 SPF)
Bit depth : 16 bits
Compression mode : Lossy
Stream size : 199 MiB (14%)
Language : Russian
Service kind : Complete Main
Default : Yes
Forced : No

Audio #2
ID : 3
Format : AC-3
Format/Info : Audio Coding 3
Format settings, Endianness : Big
Codec ID : A_AC3
Duration : 2 h 24 min
Bit rate mode : Constant
Bit rate : 192 kb/s
Channel(s) : 2 channels
Channel positions : Front: L R
Sampling rate : 48.0 kHz
Frame rate : 31.250 FPS (1536 SPF)
Bit depth : 16 bits
Compression mode : Lossy
Stream size : 199 MiB (14%)
Language : Hungarian
Service kind : Complete Main
Default : No
Forced : No

Text
ID : 4
Format : UTF-8
Codec ID : S_TEXT/UTF8
Codec ID/Info : UTF-8 Plain Text
Duration : 2 h 24 min
Bit rate : 40 b/s
Count of elements : 1345
Stream size : 42.5 KiB (0%)
Language : English
Default : No
Forced : No








МОИ РАЗДАЧИ НА ФЕНИКСе: ЗДЕСЬ




Это сообщение отредактировал SanSan48 - 12.01.2020 - 16:33


--------------------
"Спартак" - ЧЕМПИОН!!!

Скрыть подпись


kyo
№2 Отправлено: 13.01.2020 - 06:47


Живёт здесь

Группа: Потребители
Регистрация: 21.07.2007
Сообщений: 2461
Обитает:
Последний раз был:
позавчера в 17:37




Архивы в порядке, спасибо !
Top
SanSan48
№3 Отправлено: 13.01.2020 - 09:04


"Спартак" - ЧЕМПИОН!!!

Группа: Пользователи
Регистрация: 28.12.2009
Сообщений: 2113
Обитает:
Последний раз был:
cегодня в 11:57




Цитата
( kyo @ 13.01.2020 - 06:47)
Архивы в порядке, спасибо !

kyo, Благодарю за информацию!


--------------------
"Спартак" - ЧЕМПИОН!!!

Скрыть подпись
Top
1 человек просматривает эту тему (1 гость)
« Предыдущая тема | Советский дубляж | Следующая тема »


 



[Script Execution time: 0,0479]   [23 queries used]   [GZIP enabled]