Заходят многие - остаются лучшие!
Здравствуйте Гость ( Вход | Регистрация ) Выслать повторно письмо для активации
Вход
Ваше имя Пароль Забыли пароль?
Запомнить Вас?
Войти скрытым?



Новые сообщения раздела  

 

 Супер Белки / National Geographic. Super Squirrel (2014), National Geographic
bornik
  №1 Отправлено: 8.03.2017 - 05:38


Воспоминания - это богатства старости.

Группа: Модераторы
Регистрация: 18.08.2008
Сообщений: 966
Обитает:
Последний раз был:
вчера в 18:27




Супер Белки / National Geographic. Super Squirrel (2014)



«Супер Белки» - эти маленькие пушистые зверьки могут казаться тихими и скромными, но у них есть тайные навыки, позволяющие им выживать рядом с человеком.

Название: Супер Белки
Оригинальное название: Super Squirrel
Год выпуска: 2014
Жанр: Документальный, природа, фауна, флора
Выпущено: США, Red Rock Films, National Geographic Channels
Продолжительность: 00:44:00
Субтитры: Русские (мои)

Режиссёр: Сари Вайнер / Sari Wiener

Текст читает: Станислав Войнич

Описание: Безобидная белка, скромная, не приметная, самая обычная. Идеальная маскировка для супер-героя. Чемпионы по выживанию, быстрые, умные, ловкие. жизнь обычной белки может показаться беззаботной как прогулка в парке, но присмотритесь внимательнее. Им приходится готовиться к тяжелым временам, ускользать от врагов, обходить соперников и противостоять всевозможным опасностям. Для того чтобы выжить, они обзавелись уникальным набором способностей, которые будут проверены в этом фильме. Более 37 миллионов лет они оттачивали свои навыки в экстремальных условиях, ускользая от хищников и сражаясь с соперниками. С этими невероятными способностями они пришли к нам во дворы, и продолжают учиться и приспосабливаться.








General
Complete name : C:\DVD documental fimls\Супер Белки\Супер Белки (2014).avi
Format : AVI
Format/Info : Audio Video Interleave
File size : 693 MiB
Duration : 43mn 59s
Overall bit rate : 2 204 Kbps
Writing application : VirtualDubMod 1.5.10.2 (build 2540/release)
Writing library : VirtualDubMod build 2540/release

Video
ID : 0
Format : MPEG-4 Visual
Format profile : Advanced Simple@L5
Format settings, BVOP : 2
Format settings, QPel : No
Format settings, GMC : No warppoints
Format settings, Matrix : Default (H.263)
Muxing mode : Packed bitstream
Codec ID : XVID
Codec ID/Hint : XviD
Duration : 43mn 59s
Bit rate : 2 002 Kbps
Width : 720 pixels
Height : 400 pixels
Display aspect ratio : 16:9
Frame rate : 25.000 fps
Color space : YUV
Chroma subsampling : 4:2:0
Bit depth : 8 bits
Scan type : Progressive
Compression mode : Lossy
Bits/(Pixel*Frame) : 0.278
Stream size : 630 MiB (91%)
Writing library : XviD 65

Audio
ID : 1
Format : MPEG Audio
Format version : Version 1
Format profile : Layer 3
Mode : Joint stereo
Mode extension : MS Stereo
Codec ID : 55
Codec ID/Hint : MP3
Duration : 43mn 59s
Bit rate mode : Constant
Bit rate : 192 Kbps
Channel(s) : 2 channels
Sampling rate : 48.0 KHz
Compression mode : Lossy
Stream size : 60.4 MiB (9%)
Alignment : Aligned on interleaves
Interleave, duration : 40 ms (1.00 video frame)
Interleave, preload duration : 504 ms
Writing library : LAME3.98r
Encoding settings : -m j -V 4 -q 3 -lowpass 18.6 -b 192


=================================

Исходником послужил релиз HDTV, найденный на просторах инета!

Архивы созданы RAR-архиватором с добавлением 3% на восстановление и снабжены sfv-проверочником.
Просьба к первому скачавшему отписаться о сохранности архивов на источнике раздачи.


ПРИЯТНОГО ВСЕМ ПРОСМОТРА !!!




--------------------
Безоблачная старость – это миф,
Поскольку наша память – ширь морская,
И к ночи начинается прилив,
Со дна обломки прошлого таская.
Игорь Губерман

Скрыть подпись


kyo
№2 Отправлено: 8.03.2017 - 09:43


Живёт здесь

Группа: Потребители
Регистрация: 21.07.2007
Сообщений: 1813
Обитает:
Последний раз был:
вчера в 20:43




Архивы в порядке, спасибо !
Top
bornik
№3 Отправлено: 8.03.2017 - 10:22


Воспоминания - это богатства старости.

Группа: Модераторы
Регистрация: 18.08.2008
Сообщений: 966
Обитает:
Последний раз был:
вчера в 18:27




Цитата
( kyo @ 8.03.2017 - 09:43)
Архивы в порядке, спасибо !

И Вам, kyo, спасибо за добрую весть. happy_fly.gif


--------------------
Безоблачная старость – это миф,
Поскольку наша память – ширь морская,
И к ночи начинается прилив,
Со дна обломки прошлого таская.
Игорь Губерман

Скрыть подпись
Top
kvarc387
№4 Отправлено: 8.03.2017 - 13:01


Гость

Группа: Новички
Регистрация: 26.11.2014
Сообщений: 2
Обитает:
Последний раз был:
9.03.2017 - 16:27




файлы скачал, спасибо
Top
bornik
№5 Отправлено: 8.03.2017 - 13:32


Воспоминания - это богатства старости.

Группа: Модераторы
Регистрация: 18.08.2008
Сообщений: 966
Обитает:
Последний раз был:
вчера в 18:27




Цитата
( kvarc387 @ 8.03.2017 - 13:01)
файлы скачал, спасибо

kvarc387, спасибо, что сообщили. wink2.gif


--------------------
Безоблачная старость – это миф,
Поскольку наша память – ширь морская,
И к ночи начинается прилив,
Со дна обломки прошлого таская.
Игорь Губерман

Скрыть подпись
Top
Gorushka
№6 Отправлено: 8.03.2017 - 17:11


Завсегдатай

Группа: Активисты
Регистрация: 27.07.2008
Сообщений: 483
Обитает:
Последний раз был:
25.05.2017 - 19:49




Эх, на постере наша рыжая красотка, а фильм об американской крысобелке.

Если кто увидит у нас такую - в клетку ее, и обратно в Америку!
Серьезно!
Англичане уже создали общество по восстановлению популяции белки европейской. Ибо все, что сейчас видят они в Гайд-парке и далее везде - это американка. Здоровенная и беспардонно наглая. она уже вытеснила местную рыжую красотку с кисточками.


Это сообщение отредактировал Gorushka - 8.03.2017 - 17:12
Top
1 человек просматривает эту тему (1 гость)
« Предыдущая тема | Мир вокруг нас | Следующая тема »


 



[Script Execution time: 0,0220]   [23 queries used]   [GZIP enabled]