Заходят многие - остаются лучшие!
Здравствуйте Гость ( Вход | Регистрация ) Выслать повторно письмо для активации
Вход
Ваше имя Пароль Забыли пароль?
Запомнить Вас?
Войти скрытым?



Новые сообщения раздела  

 

 Год из жизни ежа / Animal Family HD. The Year of the Hedgehog (2009), Animal Family HD
bornik
  №1 Отправлено: 8.03.2017 - 14:53


Воспоминания - это богатства старости.

Группа: Модераторы
Регистрация: 18.08.2008
Сообщений: 862
Обитает:
Последний раз был:
вчера в 10:21




Год из жизни ежа / Animal Family HD. The Year of the Hedgehog (2009)



«Год из жизни ежа» - этот зверёк знаком каждому, тем не менее у ежей есть немало секретов. Приоткроем завесу тайны и посмотрим, как это животное проводит свой год.

Название: Год из жизни ежа
Оригинальное название: The Year of the Hedgehog
Год выпуска: 2009
Жанр: Документальный, природа, фауна, флора
Выпущено: Австрия, Österreichischer Rundfunk (ORF), Power of Earth TV & Film Productions, bm: ukk
Продолжительность: 00:49:15
Субтитры: Русские (мои)

Режиссёр: Курт Мюндл / Kurt Mündl

Продюсер: Вальтер Кёлер / Walter Köhler

Описание: Весной, когда воздух прозрачен и тонок, а леса усеяны весенними цветами, из вороха листьев появляется мордочка – это еж пробуждается от зимней спячки, думая лишь о еде и поиске партнера. Используя необычную технику съемки, прославленный документалист Курт Мюндл рассказывает о повадках этого колючего животного и раскрывает ранее неизвестные факты из его жизни. Пришло время узнать, что ежи едят и пьют, есть ли иголки у новорожденных ежиков, почему издревле считается, что они приносят удачу, и, наконец, обладают ли ежи иммунитетом против змеиного яда.
Довольно быстрые животные, способные бегать со скоростью до 3 м/с, хорошо умеют плавать и прыгать. При ходьбе и беге ежи ступают на землю всей ступнёй. Как у многих ночных животных, у ежа плохо развито зрение, зато они обладают острым обонянием и слухом. Уникальные кадры документального фильма позволят нам познакомиться с повадками животного, понаблюдать, как еж проводит дни и заботится о себе и семействе. В течение всего года документалисты собирали множество материала, после чего наиболее интересные фрагменты были отобраны специально для данного кинофильма.








General
Complete name : C:\DVD documental fimls\Год из жизни ежа\Год из жизни ежа (2009).avi
Format : AVI
Format/Info : Audio Video Interleave
File size : 777 MiB
Duration : 49mn 15s
Overall bit rate : 2 204 Kbps
Writing application : VirtualDubMod 1.5.10.2 (build 2540/release)
Writing library : VirtualDubMod build 2540/release

Video
ID : 0
Format : MPEG-4 Visual
Format profile : Advanced Simple@L5
Format settings, BVOP : 2
Format settings, QPel : No
Format settings, GMC : No warppoints
Format settings, Matrix : Default (H.263)
Muxing mode : Packed bitstream
Codec ID : XVID
Codec ID/Hint : XviD
Duration : 49mn 15s
Bit rate : 2 003 Kbps
Width : 720 pixels
Height : 400 pixels
Display aspect ratio : 16:9
Frame rate : 25.000 fps
Color space : YUV
Chroma subsampling : 4:2:0
Bit depth : 8 bits
Scan type : Progressive
Compression mode : Lossy
Bits/(Pixel*Frame) : 0.278
Stream size : 706 MiB (91%)
Writing library : XviD 65

Audio
ID : 1
Format : MPEG Audio
Format version : Version 1
Format profile : Layer 3
Mode : Joint stereo
Mode extension : MS Stereo
Codec ID : 55
Codec ID/Hint : MP3
Duration : 49mn 15s
Bit rate mode : Constant
Bit rate : 192 Kbps
Channel(s) : 2 channels
Sampling rate : 48.0 KHz
Compression mode : Lossy
Stream size : 67.6 MiB (9%)
Alignment : Aligned on interleaves
Interleave, duration : 40 ms (1.00 video frame)
Interleave, preload duration : 504 ms
Writing library : LAME3.98r
Encoding settings : -m j -V 4 -q 3 -lowpass 18.6 -b 192


=================================

Исходником послужил релиз HDTV, найденный на просторах инета!

Архивы созданы RAR-архиватором с добавлением 3% на восстановление и снабжены sfv-проверочником.
Просьба к первому скачавшему отписаться о сохранности архивов на источнике раздачи.

Раздача рассчитана на месяц.

ПРИЯТНОГО ВСЕМ ПРОСМОТРА !!!




--------------------
Безоблачная старость – это миф,
Поскольку наша память – ширь морская,
И к ночи начинается прилив,
Со дна обломки прошлого таская.
Игорь Губерман

Скрыть подпись


Alevtina
№2 Отправлено: 8.03.2017 - 16:11


Время камни собирать...

Группа: Аксакалы
Регистрация: 12.02.2009
Сообщений: 5480
Обитает:
Последний раз был:
вчера в 20:25




bornik, все хорошо! Архив в порядке! Спасибо!!! zdarov1.gif


--------------------

Прохожие, купите Доброту!
Лишь за улыбку! Разве ж это много!
Исполните заветную мечту…
И хоть одну из Заповедей Бога!
Снимите маски «гордых» и «крутых»
Купите, хоть немножечко, Терпенья.
И ощутите сердцем, хоть на миг,
Всю прелесть и восторг благодаренья!
Сегодня, АКЦИЯ на Совесть и Любовь!
Притормозите «хаммер» свой, иль «буммер»!
Купите! И волнуйте свою кровь!
От этого ещё никто не умер!


Скрыть подпись
Top
bornik
№3 Отправлено: 8.03.2017 - 16:46


Воспоминания - это богатства старости.

Группа: Модераторы
Регистрация: 18.08.2008
Сообщений: 862
Обитает:
Последний раз был:
вчера в 10:21




Цитата
( Alevtina @ 8.03.2017 - 16:11)
bornik, все хорошо! Архив в порядке! Спасибо!!! zdarov1.gif

И Вам, Alevtina, спасибо за добрую весть. happy_fly.gif


--------------------
Безоблачная старость – это миф,
Поскольку наша память – ширь морская,
И к ночи начинается прилив,
Со дна обломки прошлого таская.
Игорь Губерман

Скрыть подпись
Top
grival406
№4 Отправлено: 9.03.2017 - 18:06


Старожил

Группа: Потребители
Регистрация: 3.03.2016
Сообщений: 836
Обитает:
Последний раз был:
вчера в 18:34




Спасибо!


--------------------
Я знаю только одного тирана, и это тихий голос совести.
Махатма Ганди

Скрыть подпись
Top
bornik
№5 Отправлено: 9.03.2017 - 20:41


Воспоминания - это богатства старости.

Группа: Модераторы
Регистрация: 18.08.2008
Сообщений: 862
Обитает:
Последний раз был:
вчера в 10:21




Цитата
( grival406 @ 9.03.2017 - 18:06)
Спасибо!

grival406, пожалуйста. wink2.gif


--------------------
Безоблачная старость – это миф,
Поскольку наша память – ширь морская,
И к ночи начинается прилив,
Со дна обломки прошлого таская.
Игорь Губерман

Скрыть подпись
Top
1 человек просматривает эту тему (1 гость)
« Предыдущая тема | Мир вокруг нас | Следующая тема »


 



[Script Execution time: 0,0216]   [23 queries used]   [GZIP enabled]