Заходят многие - остаются лучшие!
Здравствуйте Гость ( Вход | Регистрация ) Выслать повторно письмо для активации
Вход
Ваше имя Пароль Забыли пароль?
Запомнить Вас?
Войти скрытым?



Новые сообщения раздела  

 

 Секреты шмелей / Animal Family HD. Secrets of Bumblebees (2013), Animal Family HD
bornik
  №1 Отправлено: 8.03.2017 - 20:05


Воспоминания - это богатства старости.

Группа: Модераторы
Регистрация: 18.08.2008
Сообщений: 912
Обитает:
Последний раз был:
cегодня в 03:12




Секреты шмелей / Animal Family HD. Secrets of Bumblebees (2013)



«Секреты шмелей» - одни из самых холодостойких видов насекомых: они способны, быстро и часто сокращая мышцы груди, ускоренно разогреть своё тело до необходимых 40 °C. Это позволяет им вылетать рано утром и собирать первый нектар, когда воздух ещё недостаточно прогрелся. К тому же быстрое повышение температуры тела даёт шмелям определённое конкурентное преимущество перед другими видами насекомых.

Название: Секреты шмелей
Оригинальное название: Secrets of Bumblebees
Год выпуска: 2013
Жанр: Документальный, природа, фауна, флора
Выпущено: Австрия, Österreichischer Rundfunk (ORF), Power of Earth TV & Film Productions, bm: ukk
Продолжительность: 00:50:36
Субтитры: Русские (мои)

Режиссёр: Курт Мюндл / Kurt Mündl

Операторы: Франц Ци / Franz Cee, Курт Мюндл / Kurt Mündl

Описание: Они больше, пушистей и спокойнее, чем пчелы. Они не так агрессивны и напористы, как осы. Когда ранней весной появляются первые шмели, они вызывают улыбки на наших лицах. Они - неуклюжие комики в театре насекомых! Давайте всё же взглянем на них серьезно. Шмели, может, и не так трудолюбивы, как пчелки, но они также усердно опыляют цветы и собирают нектар. Этот документальный фильм – попытка проникнуть в самую суть жизни шмелей. Современные технологии позволили нам стать свидетелями их существования, понять их биологию и изучить уникальные способности этих забавных маленьких предвестников весны.








General
Complete name : C:\DVD documental fimls\Секреты шмелей\Секреты шмелей (2013).avi
Format : AVI
Format/Info : Audio Video Interleave
File size : 797 MiB
Duration : 50mn 36s
Overall bit rate : 2 202 Kbps
Writing application : VirtualDubMod 1.5.10.2 (build 2540/release)
Writing library : VirtualDubMod build 2540/release

Video
ID : 0
Format : MPEG-4 Visual
Format profile : Advanced Simple@L5
Format settings, BVOP : 2
Format settings, QPel : No
Format settings, GMC : No warppoints
Format settings, Matrix : Default (H.263)
Muxing mode : Packed bitstream
Codec ID : XVID
Codec ID/Hint : XviD
Duration : 50mn 36s
Bit rate : 2 000 Kbps
Width : 720 pixels
Height : 400 pixels
Display aspect ratio : 16:9
Frame rate : 25.000 fps
Color space : YUV
Chroma subsampling : 4:2:0
Bit depth : 8 bits
Scan type : Progressive
Compression mode : Lossy
Bits/(Pixel*Frame) : 0.278
Stream size : 724 MiB (91%)
Writing library : XviD 65

Audio
ID : 1
Format : AC-3
Format/Info : Audio Coding 3
Mode extension : CM (complete main)
Codec ID : 2000
Duration : 50mn 36s
Bit rate mode : Constant
Bit rate : 192 Kbps
Channel(s) : 2 channels
Channel positions : Front: L R
Sampling rate : 48.0 KHz
Bit depth : 16 bits
Compression mode : Lossy
Stream size : 69.5 MiB (9%)
Alignment : Split accross interleaves
Interleave, duration : 40 ms (1.00 video frame)
Interleave, preload duration : 500 ms


=================================

Исходником послужил релиз HDTV, найденный на просторах инета!

Архивы созданы RAR-архиватором с добавлением 3% на восстановление и снабжены sfv-проверочником.
Просьба к первому скачавшему отписаться о сохранности архивов на источнике раздачи.

Раздача рассчитана на месяц.

ПРИЯТНОГО ВСЕМ ПРОСМОТРА !!!




--------------------
Безоблачная старость – это миф,
Поскольку наша память – ширь морская,
И к ночи начинается прилив,
Со дна обломки прошлого таская.
Игорь Губерман

Скрыть подпись


Alevtina
№2 Отправлено: 8.03.2017 - 20:53


Время камни собирать...

Группа: Аксакалы
Регистрация: 12.02.2009
Сообщений: 5514
Обитает:
Последний раз был:
вчера в 20:33




bornik, все Ок!!! Спасибо большое! zdarov1.gif


--------------------

Прохожие, купите Доброту!
Лишь за улыбку! Разве ж это много!
Исполните заветную мечту…
И хоть одну из Заповедей Бога!
Снимите маски «гордых» и «крутых»
Купите, хоть немножечко, Терпенья.
И ощутите сердцем, хоть на миг,
Всю прелесть и восторг благодаренья!
Сегодня, АКЦИЯ на Совесть и Любовь!
Притормозите «хаммер» свой, иль «буммер»!
Купите! И волнуйте свою кровь!
От этого ещё никто не умер!


Скрыть подпись
Top
bornik
№3 Отправлено: 9.03.2017 - 02:22


Воспоминания - это богатства старости.

Группа: Модераторы
Регистрация: 18.08.2008
Сообщений: 912
Обитает:
Последний раз был:
cегодня в 03:12




Цитата
( Alevtina @ 8.03.2017 - 20:53)
bornik, все Ок!!! Спасибо большое! zdarov1.gif

И Вам, Alevtina, спасибо за добрую весть. happy_fly.gif


--------------------
Безоблачная старость – это миф,
Поскольку наша память – ширь морская,
И к ночи начинается прилив,
Со дна обломки прошлого таская.
Игорь Губерман

Скрыть подпись
Top
grival406
№4 Отправлено: 9.03.2017 - 18:45


Старожил

Группа: Потребители
Регистрация: 3.03.2016
Сообщений: 923
Обитает:
Последний раз был:
вчера в 09:54




Релизы о природе и животных превосходны!
Большое спасибо!


--------------------
Я знаю только одного тирана, и это тихий голос совести.
Махатма Ганди

Скрыть подпись
Top
bornik
№5 Отправлено: 9.03.2017 - 20:42


Воспоминания - это богатства старости.

Группа: Модераторы
Регистрация: 18.08.2008
Сообщений: 912
Обитает:
Последний раз был:
cегодня в 03:12




Цитата
( grival406 @ 9.03.2017 - 18:45)
Релизы о природе и животных превосходны!
Большое спасибо!

grival406, большое пожалуйста. wink2.gif
Сам люблю! idea.gif


--------------------
Безоблачная старость – это миф,
Поскольку наша память – ширь морская,
И к ночи начинается прилив,
Со дна обломки прошлого таская.
Игорь Губерман

Скрыть подпись
Top
1 человек просматривает эту тему (1 гость)
« Предыдущая тема | Мир вокруг нас | Следующая тема »


 



[Script Execution time: 0,0364]   [23 queries used]   [GZIP enabled]