Заходят многие - остаются лучшие!
Здравствуйте Гость ( Вход | Регистрация ) Выслать повторно письмо для активации
Вход
Ваше имя Пароль Забыли пароль?
Запомнить Вас?
Войти скрытым?



 Правила раздела Новые сообщения раздела  


 

 Я и полковник / Me and the Colonel (1958), Дэнни Кэй, Курд Юргенс / комедия, военный
surzhoks
  №1 Отправлено: 11.09.2019 - 19:12


Живёт здесь

Группа: Аксакалы
Регистрация: 17.03.2008
Сообщений: 1159
Обитает:
Последний раз был:
cегодня в 13:52




Я и полковник / Me and the Colonel


Страна: США
Студия: William Goetz Productions
Жанр: комедия, военный
Год выпуска: 1958
Продолжительность: 01:45:18
Режиссер: Питер Гленвилл / Peter Glenville
В ролях:
Дэнни Кэй / Danny Kaye ... S.L. Jacobowsky
Курд Юргенс / Curd Jürgens ... Colonel Prokoszny
Николь Море / Nicole Maurey ... Suzanne Roualet
Франсуаза Розе / Françoise Rosay ... Madame Bouffier
Аким Тамирофф / Akim Tamiroff ... Szabuniewicz
Мартита Хант / Martita Hunt ... Mother Superior
Александр Скурби / Alexander Scourby ... Major Von Bergen
Лилиан Монтевечи / Liliane Montevecchi ... Cosette
Людвиг Штёссель / Ludwig Stössel ... Dr. Szicki
Жерар Бур / Gérard Buhr ... German Captain
Франц Роен / Franz Roehn ... Monsieur Girardin
Селия Ловски / Celia Lovsky ... Mme. Arle

Описание: Май 1940-го. Гитлеровские войска вторглись во Францию. Немецкий еврей-эмигрант с польскими корнями Самюэл Якубовски решил бежать от нацистов из Парижа в Испанию. Для этого он добыл из гаража барона Ротшильда отличный легковой автомобиль, но не умел его водить. В той же гостинице проживал польский полковник Тадеуш Прокошный со своим ординарцем Сабуневичем. Офицер получил от местного посольства секретные документы, которые нужно было срочно передать эмигрантскому правительству в Лондоне. Общая цель объединила абсолютно разных людей, и вот уже собратья по несчастью помчались по дорогам Иль де Франс. Но не на юг, как надеялся Якубовски, а на северо-восток в Реймс – спасать возлюбленную Тадеуша – прелестную Сюзанну Руайе. Тем самым они поставили себя в рискованное положение, ибо в этом регионе уже появились оккупанты. Более того, офицер вермахта майор фон Берген, что называется, «положил глаз» на Сюзанну...
Экранизация пьесы Франца Верфеля «Якубовски и полковник».

Золотой глобус, 1959 год
Победитель (1):
Лучшая мужская роль (комедия или мюзикл) ( Дэнни Кэй )
Номинации (2):
Лучший фильм, пропагандирующий мировое взаимопонимание
Лучший фильм (комедия)

Доп. информация:
Огромное спасибо всем причастным к релизу:
рип - Магда,
перевод и озвучивание фильма- Алексей Багичев,
работа со звуком - Нордер,
реавторинг DVD - alinto,
финансовая поддержка перевода и озвучивания фильма:
Магда, Lafajet, jasenka, yanaelisa, Floret, борюська, voostorg, cementit, spartakeynoir, Simpun, Wrobel, surzhoks, елена 22, leoder, sindzi, mangust1

Архивы созданы RAR-архиватором с добавлением 3% на восстановление и снабжены sfv-проверочником.
Просьба к первому скачавшему отписаться о сохранности архивов на источнике раздачи.

Раздача рассчитана на 2 месяца. На просмотр линка и скачивание 5 дней!
В случае если вы встали в очередь, а затем отказываетесь от скачивания без объяснения причин, возможен отказ в последующих моих раздачах.



Полное имя : Me and the Colonel.avi
Формат : AVI
Формат/Информация : Audio Video Interleave
Размер файла : 1,61 Гбайт
Продолжительность : 1 ч. 45 м.
Общий поток : 2186 Кбит/сек
Программа кодирования : VirtualDubMod 1.5.4.1 (build 2178/release)
Библиотека кодирования : VirtualDubMod build 2178/release

Видео
Идентификатор : 0
Формат : MPEG-4 Visual
Профиль формата : Advanced Simple@L5
Параметр BVOP формата : 2
Параметр QPel формата : Нет
Параметр GMC формата : Без точки перехода
Параметр матрицы формата : Default (H.263)
Идентификатор кодека : DX50
Идентификатор кодека/Подсказка : DivX 5
Продолжительность : 1 ч. 45 м.
Битрейт : 1787 Кбит/сек
Ширина : 704 пикселя
Высота : 384 пикселя
Соотношение сторон : 1,85:1
Частота кадров : 25,000 кадров/сек
Цветовое пространство : YUV
Субдискретизация насыщенности : 4:2:0
Битовая глубина : 8 бит
Тип развёртки : Прогрессивная
Метод сжатия : С потерями
Бит/(Пиксели*Кадры) : 0.264
Размер потока : 1,31 Гбайт (82%)
Библиотека кодирования : XviD 73

Аудио #1
Идентификатор : 1
Формат : AC-3
Формат/Информация : Audio Coding 3
Расширение режима : CM (complete main)
Параметр Endianness формата : Big
Идентификатор кодека : 2000
Продолжительность : 1 ч. 45 м.
Вид битрейта : Постоянный
Битрейт : 192 Кбит/сек
Каналы : 2 канала
Расположение каналов : Front: L R
Частота : 48,0 КГц
Битовая глубина : 16 бит
Метод сжатия : С потерями
Размер потока : 145 Мбайт (9%)
Выравнивание : Разделение по промежуткам
Продолжительность промежутка : 40 мс. (1,00 видеокадр)
Время предзагрузки промежутка : 500 мс.

Аудио #2
Идентификатор : 2
Формат : AC-3
Формат/Информация : Audio Coding 3
Расширение режима : CM (complete main)
Параметр Endianness формата : Big
Идентификатор кодека : 2000
Продолжительность : 1 ч. 45 м.
Вид битрейта : Постоянный
Битрейт : 192 Кбит/сек
Каналы : 2 канала
Расположение каналов : Front: L R
Частота : 48,0 КГц
Битовая глубина : 16 бит
Метод сжатия : С потерями
Размер потока : 145 Мбайт (9%)
Выравнивание : Разделение по промежуткам
Продолжительность промежутка : 40 мс. (1,00 видеокадр)
Время предзагрузки промежутка : 500 мс.




vjub58
№2 Отправлено: 11.09.2019 - 20:24


Практикующий эсквайр

Группа: Аксакалы
Регистрация: 6.12.2005
Сообщений: 5160
Обитает:
Последний раз был:
cегодня в 15:19




Спасибо, все ОК. pozdrav_buket.gif
Top
1 человек просматривает эту тему (1 гость)
« Предыдущая тема | Зарубежные фильмы | Следующая тема »


 



[Script Execution time: 0,0542]   [22 queries used]   [GZIP enabled]