Заходят многие - остаются лучшие!
Здравствуйте Гость ( Вход | Регистрация ) Выслать повторно письмо для активации
Вход
Ваше имя Пароль Забыли пароль?
Запомнить Вас?
Войти скрытым?



 Правила раздела Новые сообщения раздела  


 

 Экс-леди / Бывшая возлюбленная / Ex-Lady (1933), Бетт Дэвис !
surzhoks
  №1 Отправлено: 14.05.2015 - 19:02


Живёт здесь

Группа: Аксакалы
Регистрация: 17.03.2008
Сообщений: 1100
Обитает:
Последний раз был:
вчера в 17:49




Экс-леди / Бывшая возлюбленная / Ex-Lady


Страна: США
Жанр: драма, комедия
Год выпуска: 1933
Продолжительность: 01:06:53
Режиссер: Роберт Флори / Robert Florey
В ролях:
Бетт Дэвис / Bette Davis ... Helen Bauer
Джин Рэймонд / Gene Raymond ... Don Peterson
Фрэнк МакХью / Frank McHugh ... Hugo Van Hugh
Монро Оусли / Monroe Owsley ... Nick Malvyn
Клер Додд / Claire Dodd ... Iris Van Hugh
Кэй Строцци / Kay Strozzi ... Peggy Smith
Фердинанд Готтшалк / Ferdinand Gottschalk ... Mr. Herbert Smith
Альфонсе Этье / Alphonse Ethier ... Mr. Adolphe Bauer - Helen's Father
Бодил Росинг / Bodil Rosing ... Mrs. Bauer - Helen's Mother

Описание: Гламурная, успешная, очень свободомыслящая и придерживающаяся современных представлений о романтике нью-йоркская художница Хелен Бауэр встречается с Доном Петерсоном, но не хочет жертвовать своей независимостью, вступая в брак. Они решают пожениться только чтобы успокоить консервативного и старомодного отца Хелен. Они открывают собственное рекламное агенство, но финансовые проблемы в бизнесе осложняют их отношения, и Дон начинает встречаться с Пегги Смит, одной из своих замужних клиенток. Узнав об измене мужа, Хелен заводит роман с ловеласом Ником Мэлвином, деловым партнёром Дона.

Доп. информация:
Огромное спасибо всем причастным к релизу:
рип - Магда,
перевод и озвучивание - Stalk,
работа со звуком и реавторинг DVD - tanda2007,
финансовая поддержка перевода и озвучивания фильма:
Магда, Lafajet, jasenka, елена 22, yanaelisa, atomic dragonfly, old76, HippopotamusIV, Ugo927, борюська, and76ss, leoder, GalaUkr, surzhoks, Лямдазонд, mangust1, voostorg, bornik, mumzik69, erfv



Архивы созданы RAR-архиватором и снабжены sfv-проверочником.
Есть зеркало на rusfolder

Просьба к первому скачавшему отписаться о сохранности архивов на источнике раздачи.

Раздача рассчитана на месяц. На просмотр линка и скачивание 5 дней!
В случае если вы встали в очередь, а затем отказываетесь от скачивания без объяснения причин, возможен отказ в последующих моих раздачах.

Полное имя ....Ex-Lady.DVDRip.avi
Формат : AVI
Формат/Информация : Audio Video Interleave
Размер файла : 760 Мбайт
Продолжительность : 1 ч. 6 м.
Общий поток : 1589 Кбит/сек
Программа кодирования : VirtualDubMod 1.5.4.1 (build 2178/release)
Библиотека кодирования : VirtualDubMod build 2178/release

Видео
Идентификатор : 0
Формат : MPEG-4 Visual
Профиль формата : Advanced Simple@L5
Параметр BVOP формата : 2
Параметр QPel формата : Нет
Параметр GMC формата : Без точки перехода
Параметр матрицы формата : Default (H.263)
Идентификатор кодека : DX50
Идентификатор кодека/Подсказка : DivX 5
Продолжительность : 1 ч. 6 м.
Битрейт : 1319 Кбит/сек
Ширина : 576 пикселей
Высота : 432 пикселя
Соотношение сторон : 4:3
Частота кадров : 23,976 кадра/сек
Цветовое пространство : YUV
Субдискретизация насыщенности : 4:2:0
Битовая глубина : 8 бит
Тип развёртки : Прогрессивная
Метод сжатия : С потерями
Бит/(Пиксели*Кадры) : 0.221
Размер потока : 631 Мбайт (83%)
Библиотека кодирования : XviD 73

Аудио #1
Идентификатор : 1
Формат : MPEG Audio
Версия формата : Version 1
Профиль формата : Layer 3
Идентификатор кодека : 55
Идентификатор кодека/Подсказка : MP3
Продолжительность : 1 ч. 6 м.
Вид битрейта : Постоянный
Битрейт : 128 Кбит/сек
Каналы : 2 канала
Частота : 48,0 КГц
Метод сжатия : С потерями
Размер потока : 61,2 Мбайт (8%)
Выравнивание : Соединение по промежуткам
Продолжительность промежутка : 42 мс. (1,00 видеокадр)
Время предзагрузки промежутка : 504 мс.
Библиотека кодирования : LAME3.99r
Настройки программы : -m s -V 4 -q 0 -lowpass 17 -b 128

Аудио #2
Идентификатор : 2
Формат : MPEG Audio
Версия формата : Version 1
Профиль формата : Layer 3
Идентификатор кодека : 55
Идентификатор кодека/Подсказка : MP3
Продолжительность : 1 ч. 6 м.
Вид битрейта : Постоянный
Битрейт : 128 Кбит/сек
Каналы : 2 канала
Частота : 48,0 КГц
Метод сжатия : С потерями
Размер потока : 61,2 Мбайт (8%)
Выравнивание : Соединение по промежуткам
Продолжительность промежутка : 42 мс. (1,00 видеокадр)
Время предзагрузки промежутка : 504 мс.
Библиотека кодирования : LAME3.99r
Настройки программы : -m s -V 4 -q 0 -lowpass 17 -b 128




Это сообщение отредактировал surzhoks - 14.05.2015 - 19:03


vjub58
№2 Отправлено: 14.05.2015 - 21:03


Практикующий эсквайр

Группа: Аксакалы
Регистрация: 6.12.2005
Сообщений: 4864
Обитает:
Последний раз был:
cегодня в 01:06




Спасибо, все ОК. pozdrav_buket.gif
Top
светлана
№3 Отправлено: 15.05.2015 - 15:48


Desde el día Soleado con Amor

Группа: Архивариусы
Регистрация: 26.01.2009
Сообщений: 2188
Обитает:
Последний раз был:
20.10.2016 - 10:55




Субтитры в базе
Top
1 человек просматривает эту тему (1 гость)
« Предыдущая тема | Зарубежные фильмы | Следующая тема »


 



[Script Execution time: 0,0270]   [22 queries used]   [GZIP enabled]