Заходят многие - остаются лучшие!
Здравствуйте Гость ( Вход | Регистрация ) Выслать повторно письмо для активации
Вход
Ваше имя Пароль Забыли пароль?
Запомнить Вас?
Войти скрытым?



 Правила раздела Новые сообщения раздела  


 

 Любовь с первого взгляда / ერთი ნახვით შეყვარება (1975), Старое советское кино
bornik
  №1 Отправлено: 29.06.2016 - 07:52


Воспоминания - это богатства старости.

Группа: Модераторы
Регистрация: 18.08.2008
Сообщений: 1036
Обитает:
Последний раз был:
12.05.2019 - 16:57




Любовь с первого взгляда / ერთი ნახვით შეყვარება



Предыдущая раздача 22.04.2007 г.
Предыдущая раздача 16.04.2008 г.

«Любовь с первого взгляда» - комедийный художественный фильм, снятый в 1975 году киностудиями «Грузия-фильм» и «Ленфильм».
В авторской версии фильм восстановлен и выпущен на экран в 1988 году.

Год выпуска: 1975
Жанр: Лирическая комедия, драма, мелодрама
Выпущено: СССР, Ленфильм, Грузия-фильм
Премьера: 27 ноября 1978 года (Москва)

Режиссёр: Резо Эсадзе

В ролях:
Вахтанг Панчулидзе … Мурад
Наталья Юриздицкая … Аня
Рамаз Чхиквадзе … Акрам, отец Мурада
Саломе Канчели … Асиад, мать Мурада
Кахи Кавсадзе … Селим, глухонемой дядя Мурада
Бухути Закариадзе … дядя Мурада
Владимир Новиков … Семён Годунов, брат Ани, военнослужащий
Резо Эсадзе … Барахалов, уличный актёр
Валерий Носик … Валера, сосед
Владимир Татосов … Ашот, сосед
Шариф Кабулов … Абдула, сосед
Олег Хроменков … сосед-демагог
Тамара Схиртладзе … Тамара, соседка
Леван Антадзе … сосед-«Дон Жуан»
Мария Капнист … волшебница
Георгий Кавтарадзе … прохожий в канотье с тростью
Зураб Капианидзе … военком
Насиба Зейналова … сваха
Бадри Бегалишвили … Рустам, отец невесты
Анатолий Абрамов … дворник
Зинаида Шарко … эпизод
Джемал Гаганидзе … парикмахер (в титрах Д. Гагнидзе)
Роберт Городецкий … Володя, пассажир поезда
Валерий Караваев … родственник в сцене сватовства
Анна Лисянская … Надя
Давид Папуашвили … сосед
Юрий Васадзе … сосед
Нодар Пиранишвили … сосед
Баадур Цуладзе … садовник
Юрий Дубровин … садовник

ОЗВУЧИВАНИЕ:

Зиновий Гердт … читает текст за кадром

Сценарист: Эдуард Тополь
Оператор: Юрий Воронцов
Композитор: Яков Бобохидзе
Художник: Георгий Кропачёв

Описание: Главный герой фильма, 16-летний азербайджанец Мурад Расулов, простой парень, страстный поклонник футбола, влюбился впервые в жизни, да ещё в русскую девушку, которая к тому же старше его на два года и учится в институте. Разница в возрасте и конфликт культур становятся препятствием на пути юноши, которому никто не помогает в безнадёжной, отчаянной борьбе за любовь.


Мою картину «Любовь с первого взгляда», где не было ни политики, ни социальных проблем, а только любовная история, запретили из-за единственного эпизода. В большом бакинском дворе отец главного героя собирается резать барана, и соседи дают ему по этому поводу разнообразные советы. Один из них выходит на балкон в потертом френче и зачитывает инструкцию, как правильно резать барана. Смешно это выглядело или не очень — не берусь судить, это режиссёрская придумка, в моем сценарии такого не было. Но чиновники из Госкино усмотрели здесь пародию на советского служащего, который, дескать, всё делает по бумажке, и потребовали эпизод вырезать. Однако режиссёр фильма Резо Эсадзе заявил: «Нет, я ничего вырезать не буду!» И советское государство, потратившее 240 тысяч рублей на производство картины, не посмело взять ножницы и самолично вырезать эти несчастные 19 метров пленки, что в подобном случае, даже не задумываясь, сделал бы любой западный продюсер.
Эдуард Тополь


1979 — Почётный диплом фильму на XIX МКФ в Картахене, Колумбия


• Фильм был выпущен на экран в 1978 году.
• Сценарист Эдуард Тополь взял себе псевдоним Белла Абрамова.
• В 1988 году режиссёр Резо Эсадзе подготовил новую редакцию фильма.










=================================

Исходником послужил релиз DVB от sappyyy, взятый с Рутрекера, за что ему БОЛЬШОЕ СПАСИБО!



Архивы созданы RAR-архиватором с добавлением 3% на восстановление и снабжены sfv-проверочником.
Просьба к первому скачавшему отписаться о сохранности архивов на источнике раздачи.

Раздача рассчитана на месяц.

ПРИЯТНОГО ВСЕМ ПРОСМОТРА !!!



General
Complete name : C:\Cinema\Любовь с первого взгляда (1975) TVRip.avi
Format : AVI
Format/Info : Audio Video Interleave
File size : 1.31 GiB
Duration : 1h 24mn
Overall bit rate : 2 205 Kbps
Writing application : VirtualDubModRus 1.5.10.2 (build 2540/release)
Writing library : VirtualDubMod build 2540/release

Video
ID : 0
Format : MPEG-4 Visual
Format profile : Advanced Simple@L5
Format settings, BVOP : 2
Format settings, QPel : No
Format settings, GMC : No warppoints
Format settings, Matrix : Default (H.263)
Muxing mode : Packed bitstream
Codec ID : XVID
Codec ID/Hint : XviD
Duration : 1h 24mn
Bit rate : 2 003 Kbps
Width : 720 pixels
Height : 544 pixels
Display aspect ratio : 4:3
Frame rate : 25.000 fps
Color space : YUV
Chroma subsampling : 4:2:0
Bit depth : 8 bits
Scan type : Progressive
Compression mode : Lossy
Bits/(Pixel*Frame) : 0.205
Stream size : 1.19 GiB (91%)
Writing library : XviD 65

Audio
ID : 1
Format : MPEG Audio
Format version : Version 1
Format profile : Layer 3
Mode : Joint stereo
Mode extension : MS Stereo
Codec ID : 55
Codec ID/Hint : MP3
Duration : 1h 24mn
Bit rate mode : Constant
Bit rate : 192 Kbps
Channel(s) : 2 channels
Sampling rate : 48.0 KHz
Compression mode : Lossy
Stream size : 117 MiB (9%)
Alignment : Aligned on interleaves
Interleave, duration : 40 ms (1.00 video frame)
Interleave, preload duration : 504 ms
Writing library : LAME3.99r
Encoding settings : -m j -V 4 -q 3 -lowpass 18.6 -b 192



Другое участие: sappyyy – предоставление исходной записи




--------------------
Безоблачная старость – это миф,
Поскольку наша память – ширь морская,
И к ночи начинается прилив,
Со дна обломки прошлого таская.
Игорь Губерман

Скрыть подпись


kyo
№2 Отправлено: 29.06.2016 - 09:50


Живёт здесь

Группа: Потребители
Регистрация: 21.07.2007
Сообщений: 2263
Обитает:
Последний раз был:
cегодня в 03:07




Архивы в порядке, спасибо !
Top
bornik
№3 Отправлено: 29.06.2016 - 10:47


Воспоминания - это богатства старости.

Группа: Модераторы
Регистрация: 18.08.2008
Сообщений: 1036
Обитает:
Последний раз был:
12.05.2019 - 16:57




Цитата
( kyo @ 29.06.2016 - 09:50)
Архивы в порядке, спасибо !

И Вам, kyo, спасибо за добрую весть. happy_fly.gif


--------------------
Безоблачная старость – это миф,
Поскольку наша память – ширь морская,
И к ночи начинается прилив,
Со дна обломки прошлого таская.
Игорь Губерман

Скрыть подпись
Top
bornik
№4 Отправлено: 19.08.2016 - 06:32


Воспоминания - это богатства старости.

Группа: Модераторы
Регистрация: 18.08.2008
Сообщений: 1036
Обитает:
Последний раз был:
12.05.2019 - 16:57




Всем спасибо.
Очередь закрыта. Если есть желающие - пишите в ПМ. wink2.gif


--------------------
Безоблачная старость – это миф,
Поскольку наша память – ширь морская,
И к ночи начинается прилив,
Со дна обломки прошлого таская.
Игорь Губерман

Скрыть подпись
Top
1 человек просматривает эту тему (1 гость)
« Предыдущая тема | Отечественное кино | Следующая тема »


 



[Script Execution time: 0,1055]   [22 queries used]   [GZIP enabled]