Заходят многие - остаются лучшие!
Здравствуйте Гость ( Вход | Регистрация ) Выслать повторно письмо для активации
Вход
Ваше имя Пароль Забыли пароль?
Запомнить Вас?
Войти скрытым?



Новые сообщения раздела  

 

 Прощание со Сталиным / Похороны Сталина / Государственные похороны / State Funeral (2019), Уникальные архивные материалы, снятые в СССР 5-9 марта 1953 года
SanSan48
  №1 Отправлено: 25.04.2020 - 13:02


"Спартак" - ЧЕМПИОН!!!

Группа: Пользователи
Регистрация: 28.12.2009
Сообщений: 2175
Обитает:
Последний раз был:
вчера в 14:49




Прощание со Сталиным / Похороны Сталина / Государственные похороны / State Funeral (2019)



Жанр: Документальный, исторический
Выпущено: Нидерланды, Литва, Atoms & Void, Настоящее Время, Nutprdukce, Studio Uljana Kim
Год выпуска: 2019
Сценарист: Сергей Лозница
Премьера (мир): 6 сентября 2019 (Италия, Международный кинофестиваль в Венеции)
Премьера (Россия): 5 марта 2020
Монтажёр: Даниэлюс Коканаускис

Режиссёр: Сергей Лозница

Описание: Уникальные, в основном ранее не демонстрировавшиеся, архивные материалы - записи кинохроники с 5 по 9 марта 1953 года, показывющие похороны Иосифа Сталина, как кульминацию культа личности диктатора. Известие о смерти Сталина 5 марта 1953 года потрясло весь Советский Союз. На церемонии похорон присутствовали десятки тысяч скорбящих людей и делегации многих стран мира во главе с их лидерами. На кадрах изображён каждый этап похоронного действия, который газета «Правда» называет «Великим прощанием», где получен беспрецедентный доступ к драматическому и абсурдному опыту жизни и смерти при сталинском правлении. Фильм посвящен проблеме культа личности Сталина, как формы иллюзии, вызванной террором. Это дает представление о природе режима и его наследии, глубокими корнями проросшее в современный мир…

Дополнительная информация: Релиз:

Исходник предоставили - Saulius Kintera / Luxembourg /, trecioka (Lithuania) .

Автор рипа: pmv

Большое спасибо за:
- помощь в подготовке релиза Saulius Kintera / Luxembourg /, trecioka (Lithuania)

IMDb = 7,1/10 (161) - https://href.li/?https://www.imdb.com/title/tt10203842
Кинопоиск = 7.602 (315) - https://www.kinopoisk.ru/film/1313568/

ВНИМАНИЕ!!! РИП ФОРМАТА mkv (кодек H.264) ВОСПРОИЗВОДИТСЯ НЕ НА ВСЕХ БЫТОВЫХ ВИДЕОПЛЕЕРАХ!!!

Параметры файла:
Название: State Funeral 2019.mkv
Качество видео: WEB-DLRip-AVC
Формат видео: MKV
Размер: 2,06 ГБ (2 217 141 392 байт)
Продолжительность: 02:14:42
Субтитры: английские, французские
Видео: AVC (H264), 854x648 (4:3), 24 fps, 2000 kbps, 0.151 Bits/Pixel
Аудио: AC3, 48 KHz, stereo (2 ch), 192 kbps - русский



General
Unique ID : 209406569355286179804608660500501636416 (0x9D8A3CFDC5FDB21FE6A784984F262540)
Complete name : D:\torrents\State Funeral 2019.mkv
Format : Matroska
Format version : Version 4 / Version 2
File size : 2.06 GiB
Duration : 2 h 14 min
Overall bit rate : 2 195 kb/s
Encoded date : UTC 2020-04-24 20:51:26
Writing application : mkvmerge v45.0.0 ('Heaven in Pennies') 64-bit
Writing library : libebml v1.3.10 + libmatroska v1.5.2

Video
ID : 1
Format : AVC
Format/Info : Advanced Video Codec
Format profile : High@L4.1
Format settings, CABAC : Yes
Format settings, RefFrames : 8 frames
Codec ID : V_MPEG4/ISO/AVC
Duration : 2 h 14 min
Bit rate : 2 000 kb/s
Width : 854 pixels
Height : 648 pixels
Display aspect ratio : 4:3
Frame rate mode : Constant
Frame rate : 24.000 FPS
Color space : YUV
Chroma subsampling : 4:2:0
Bit depth : 8 bits
Scan type : Progressive
Bits/(Pixel*Frame) : 0.151
Stream size : 1.88 GiB (91%)
Writing library : x264 core 157 r2958 57baac4
Encoding settings : cabac=1 / ref=8 / deblock=1:-1:-1 / analyse=0x3:0x133 / me=umh / subme=9 / psy=1 / psy_rd=1.00:0.00 / mixed_ref=1 / me_range=24 / chroma_me=1 / trellis=2 / 8x8dct=1 / cqm=0 / deadzone=21,11 / fast_pskip=1 / chroma_qp_offset=-2 / threads=20 / lookahead_threads=3 / sliced_threads=0 / nr=0 / decimate=1 / interlaced=0 / bluray_compat=0 / constrained_intra=0 / bframes=7 / b_pyramid=2 / b_adapt=2 / b_bias=0 / direct=3 / weightb=1 / open_gop=0 / weightp=2 / keyint=10 / keyint_min=6 / scenecut=40 / intra_refresh=0 / rc_lookahead=10 / rc=2pass / mbtree=1 / bitrate=2000 / ratetol=1.0 / qcomp=0.60 / qpmin=0 / qpmax=69 / qpstep=4 / cplxblur=20.0 / qblur=0.5 / ip_ratio=1.40 / aq=1:1.00
Default : Yes
Forced : No

Audio
ID : 2
Format : AC-3
Format/Info : Audio Coding 3
Format settings, Endianness : Big
Codec ID : A_AC3
Duration : 2 h 14 min
Bit rate mode : Constant
Bit rate : 192 kb/s
Channel(s) : 2 channels
Channel positions : Front: L R
Sampling rate : 48.0 kHz
Frame rate : 31.250 FPS (1536 SPF)
Bit depth : 16 bits
Compression mode : Lossy
Stream size : 185 MiB (9%)
Language : Russian
Service kind : Complete Main
Default : Yes
Forced : No

Text #1
ID : 3
Format : UTF-8
Codec ID : S_TEXT/UTF8
Codec ID/Info : UTF-8 Plain Text
Duration : 2 h 9 min
Bit rate : 22 b/s
Count of elements : 580
Stream size : 21.6 KiB (0%)
Language : English
Default : No
Forced : No

Text #2
ID : 4
Format : UTF-8
Codec ID : S_TEXT/UTF8
Codec ID/Info : UTF-8 Plain Text
Duration : 2 h 10 min
Bit rate : 26 b/s
Count of elements : 646
Stream size : 25.4 KiB (0%)
Language : French
Default : No
Forced : No






МОИ РАЗДАЧИ НА ФЕНИКСе: ЗДЕСЬ


Это сообщение отредактировал SanSan48 - 25.04.2020 - 13:52


--------------------
"Спартак" - ЧЕМПИОН!!!

Скрыть подпись
Эмилиан
№2 Отправлено: 25.04.2020 - 13:12


Живёт здесь

Группа: Потребители
Регистрация: 5.11.2010
Сообщений: 3714
Обитает:
На форуме с:
cегодня в 01:18




Спасибо, все ОК!
Top
SanSan48
№3 Отправлено: 25.04.2020 - 13:15


"Спартак" - ЧЕМПИОН!!!

Группа: Пользователи
Регистрация: 28.12.2009
Сообщений: 2175
Обитает:
Последний раз был:
вчера в 14:49




Цитата
( Эмилиан @ 25.04.2020 - 13:12)
Спасибо, все ОК!

Эмилиан, Благодарю за сообщение!

Приятного всем просмотра!


--------------------
"Спартак" - ЧЕМПИОН!!!

Скрыть подпись
Top
eugene2
№4 Отправлено: 26.04.2020 - 02:48


Живёт здесь

Группа: Потребители
Регистрация: 24.04.2007
Сообщений: 2095
Обитает:
Последний раз был:
cегодня в 00:10




Большое спасибо!
Top
wider2
№5 Отправлено: 26.04.2020 - 06:23


Живёт здесь

Группа: Потребители
Регистрация: 17.10.2006
Сообщений: 1502
Обитает:
Последний раз был:
вчера в 16:16




но по сути то дела...
это еще одна агитка, только уже со знаком минус из-за бугра
Top
tovarish
№6 Отправлено: 26.04.2020 - 10:50


Завсегдатай

Группа: Потребители
Регистрация: 8.07.2008
Сообщений: 355
Обитает:
Последний раз был:
вчера в 05:40




Цитата
wider2 @ 26.04.2020 - 06:23
но по сути то дела...
это еще одна агитка, только уже со знаком минус из-за бугра


Т-щ Пучков (Гоблин) всем нам давно доказал своими смешными переводами, что озвучка не менее важна, чем картинка.


Это сообщение отредактировал tovarish - 26.04.2020 - 10:52
Top
AleksP
№7 Отправлено: 27.02.2021 - 16:48


Живёт здесь

Группа: Потребители
Регистрация: 27.01.2020
Сообщений: 3894
Обитает:
Последний раз был:
вчера в 16:40




Архивы в порядке, спасибо.
Top
1 человек просматривает эту тему (1 гость)
« Предыдущая тема | Летопись времён и идей | Следующая тема »


 



[Script Execution time: 0,0971]   [22 queries used]   [GZIP enabled]